<?xml version="1.0" standalone="no"?>
<!DOCTYPE svg PUBLIC "-//W3C//DTD SVG 1.1//EN" "http://www.w3.org/Graphics/SVG/1.1/DTD/svg11.dtd" >
<svg xmlns="http://www.w3.org/2000/svg">
<metadata>Generated by IcoMoon</metadata>
<defs>
<font id="icomoon" horiz-adv-x="1024">
<font-face units-per-em="1024" ascent="960" descent="-64" />
<missing-glyph horiz-adv-x="1024" />
<glyph unicode="&#x20;" horiz-adv-x="512" d="" />
<glyph unicode="&#xe900;" glyph-name="arrow-right" d="M512 99.84c-192.512 0-348.16 155.648-348.16 348.16s155.648 348.16 348.16 348.16 348.16-155.648 348.16-348.16-155.648-348.16-348.16-348.16zM512 755.2c-169.984 0-307.2-137.216-307.2-307.2s137.216-307.2 307.2-307.2 307.2 137.216 307.2 307.2-137.216 307.2-307.2 307.2zM505.856 249.344l-28.672 28.672 169.984 169.984-169.984 169.984 28.672 28.672 198.656-198.656zM327.68 468.48h348.16v-40.96h-348.16z" />
<glyph unicode="&#xe901;" glyph-name="auto-insurance" d="M209.9 278.615c0-13.061-10.586-23.647-23.647-23.647h-120.418c-13.061 0-23.647 10.586-23.647 23.647s10.586 23.647 23.647 23.647h120.421c13.058 0 23.644-10.586 23.644-23.647zM216.096 390.049c-1.369-0.244-2.756-0.365-4.141-0.365s-2.772 0.121-4.141 0.365c-57.404 10.213-109.979 40.557-148.045 85.447-38.542 45.452-59.769 103.143-59.769 162.444v145.46c0 19.454 12.396 46.697 71.45 66.004 37.874 12.38 87.772 19.201 140.502 19.201 52.725 0 102.622-6.821 140.497-19.201 59.057-19.306 71.453-46.55 71.453-66.004 0-0.145 0-0.286-0.003-0.431v-145.026c0-59.301-21.224-116.992-59.766-162.444-38.064-44.892-90.639-75.239-148.037-85.449zM376.606 637.94v144.982c-4.682 11.172-59.425 38.387-164.653 38.387-105.258 0-160-27.231-164.659-38.395v-144.974c0-97.853 68.991-181.529 164.659-200.547 95.665 19.017 164.653 102.693 164.653 200.547zM186.253 217.332h-53.849c-13.061 0-23.647-10.586-23.647-23.647s10.586-23.647 23.647-23.647h53.849c13.061 0 23.647 10.586 23.647 23.647s-10.586 23.647-23.647 23.647zM701.522 138.951c0-13.061-10.586-23.647-23.647-23.647h-136.529c-10.875-50.194-55.631-87.906-109.033-87.906-54.764 0-100.436 39.666-109.798 91.776-18.949 6.004-34.58 18.65-42.98 35.518-4.204 8.468-6.327 17.438-6.327 26.689v157.678c0 13.061 10.586 23.647 23.647 23.647s23.647-10.586 23.647-23.647v-157.68c0-1.892 0.465-3.786 1.382-5.636 0.801-1.608 1.997-3.242 3.555-4.787 13.791 45.956 56.485 79.538 106.873 79.538 53.397 0 98.153-37.714 109.031-87.898h136.529c13.064 0.003 23.65-10.583 23.65-23.644zM496.574 138.948c0 35.428-28.826 64.254-64.259 64.254-35.255 0-63.973-28.537-64.257-63.728 0.005-0.292 0.003-0.589 0-0.883 0.192-35.268 28.944-63.899 64.257-63.899 35.431 0 64.259 28.826 64.259 64.257zM1023.898 231.76l-0.068-15.273c-0.047-9.908-0.1-21.203-0.1-35.108 0-28.279-20.339-52.764-49.012-62.076-9.306-52.17-55.011-91.905-109.819-91.905-61.511 0-111.553 50.042-111.553 111.55s50.042 111.548 111.553 111.548c50.31 0 92.951-33.481 106.808-79.327 2.964 3.006 4.729 6.548 4.729 10.213 0 13.991 0.055 25.36 0.1 35.331l0.068 15.263c0.087 18.862 0.202 44.695-0.071 56.753-0.194 8.636-0.428 15.723-1.035 21.852h-363.781c-8.487 0-28.361 0-89.18 60.105-18.529 18.313-55.363 57.278-62.141 73.692-4.984 12.070 0.759 25.896 12.83 30.883 11.887 4.908 25.476-0.586 30.649-12.281 3.213-5.762 22.446-29.354 50.318-57.081 35.105-34.921 53.757-46.23 58.841-48.024h335.891c-7.604 7.291-17.357 15.933-29.89 27.039-6.508 5.765-13.657 12.099-21.508 19.146-5.728 5.137-11.435 10.591-16.955 15.864-8.037 7.68-16.348 15.617-25 22.867-7.635 6.4-14.866 12.486-21.745 18.276-87.759 73.894-111.348 93.755-185.358 93.755h-163.248c-13.061 0-23.647 10.586-23.647 23.647s10.586 23.647 23.647 23.647h163.248c91.269 0 127.73-30.702 215.82-104.869 6.847-5.765 14.049-11.829 21.653-18.2 9.837-8.242 18.715-16.724 27.302-24.926 5.499-5.252 10.691-10.215 15.87-14.858 7.772-6.973 14.845-13.242 21.287-18.949 56.676-50.216 71.91-63.713 73.418-130.515 0.284-12.701 0.171-37.838 0.079-58.037zM929.155 139.193c-0.134 35.315-28.907 64.010-64.259 64.010-35.431 0-64.259-28.826-64.259-64.254 0-35.431 28.826-64.257 64.259-64.257 35.415 0 64.23 28.799 64.259 64.209 0 0.097 0 0.194 0 0.292zM864.927 162.595h-0.060c-13.061 0-23.615-10.586-23.615-23.647s10.617-23.647 23.678-23.647 23.647 10.586 23.647 23.647-10.589 23.647-23.65 23.647zM392.155 334.23c0-13.061 10.586-23.647 23.647-23.647h26.603c13.061 0 23.647 10.586 23.647 23.647s-10.586 23.647-23.647 23.647h-26.603c-13.058 0-23.647-10.586-23.647-23.647zM432.344 162.595h-0.071c-13.061 0-23.613-10.586-23.613-23.647s10.623-23.647 23.684-23.647 23.647 10.586 23.647 23.647-10.586 23.647-23.647 23.647z" />
<glyph unicode="&#xe902;" glyph-name="chalk-board" d="M655.269 408.506c-63.374-12.408-98.394-8.212-113.53 13.603-19.52 28.13 5.403 68.699 29.504 107.931 9.339 15.202 24.424 39.754 26.141 50.099-13.020 1.967-51.233-3.206-74.82-6.4-72.309-9.797-110.542-13.745-120.973 11.208-8.501 20.326 10.791 40.731 42.372 65.116 65.165 50.317 70.122 70.063 70.467 73.382-2.763 1.935-21.872 12.033-101.112-3.662-55.711-11.029-123.248-31.6-180.666-55.025-8.778-3.581-18.776 0.632-22.352 9.398-3.576 8.768 0.632 18.776 9.398 22.352 61.224 24.977 132.845 46.587 191.587 57.812 101.036 19.305 124.363 1.325 133.119-13.88 15.477-26.88-9.035-63.122-79.483-117.52-13.527-10.446-21.213-17.676-25.565-22.428 18.323-0.945 54.939 4.022 78.606 7.225 55.397 7.502 85.026 10.948 100.373 0.764 10.059-6.679 19.66-20.583 8.259-48.924-5.739-14.264-15.646-30.39-26.133-47.466-10.079-16.405-20.5-33.369-26.533-47.826-5.459-13.094-5.577-20.361-4.019-22.607 0.37-0.539 9.919-12.981 78.765 0.497 45.715 8.962 76.032 6.664 92.672-7.032 8.842-7.277 13.517-17.407 13.517-29.3 0-9.469-7.676-17.145-17.145-17.145s-17.145 7.676-17.145 17.145c0 1.989-0.451 2.359-1.016 2.824-1.249 1.031-13.681 9.775-64.288-0.142zM861.429 238.893c-9.469 0-17.145-7.676-17.145-17.145s7.676-17.145 17.145-17.145h58.454c9.469 0 17.145 7.676 17.145 17.145v638.075c0 9.469-7.676 17.145-17.145 17.145h-815.77c-9.469 0-17.145-7.676-17.145-17.145v-638.075c0-9.469 7.676-17.145 17.145-17.145h504.998c9.469 0 17.145 7.676 17.145 17.145s-7.676 17.145-17.145 17.145h-487.853v603.785h781.481v-603.785h-41.309zM814.269 275.958v-298.654c0-22.776-18.529-41.304-41.307-41.304h-75.39c-22.778 0-41.307 18.529-41.307 41.304v298.654c0 36.102 29.369 65.471 65.471 65.471h27.067c36.097 0 65.466-29.369 65.466-65.471zM779.979 275.958c0 17.196-13.988 31.181-31.176 31.181h-27.067c-17.196 0-31.181-13.988-31.181-31.181v-298.654c0-3.804 3.216-7.015 7.017-7.015h75.39c3.804 0 7.017 3.213 7.017 7.015v298.654zM1006.855 960h-989.711c-9.469 0-17.145-7.676-17.145-17.145v-804.141c0-9.469 7.676-17.145 17.145-17.145h591.963c9.469 0 17.145 7.676 17.145 17.145s-7.676 17.145-17.145 17.145h-574.818v769.852h955.421v-769.852h-128.282c-9.469 0-17.145-7.676-17.145-17.145s7.676-17.145 17.145-17.145h145.426c9.469 0 17.145 7.676 17.145 17.145v804.141c0 9.469-7.676 17.145-17.145 17.145z" />
<glyph unicode="&#xe903;" glyph-name="check" d="M391.339 163.968c-11.781 0.003-22.446 4.78-30.165 12.501l-241.365 241.365c-7.41 7.665-11.977 18.12-11.977 29.641 0 23.564 19.103 42.667 42.667 42.667 11.521 0 21.976-4.567 29.653-11.989l211.188-211.188 452.523 452.565c7.665 7.41 18.12 11.977 29.641 11.977 23.564 0 42.667-19.103 42.667-42.667 0-11.521-4.567-21.976-11.989-29.653l-482.676-482.719c-7.719-7.722-18.384-12.499-30.165-12.501h-0.001z" />
<glyph unicode="&#xe904;" glyph-name="check1" d="M512 874.496c-235.552 0-426.496-190.944-426.496-426.496s190.976-426.496 426.496-426.496c235.552 0 426.496 190.944 426.496 426.496s-190.944 426.496-426.496 426.496zM512 55.616c-216.352 0-392.384 176.032-392.384 392.384s176 392.384 392.384 392.384c216.352 0 392.384-176.032 392.384-392.384s-176-392.384-392.384-392.384zM725.344 600.288l-273.888-265.568-95.936 95.936c-9.984 9.984-26.176 9.984-36.192 0s-9.984-26.176 0-36.192l113.76-113.76c4.992-4.992 11.552-7.488 18.080-7.488 6.4 0 12.832 2.4 17.792 7.2l291.968 283.136c10.144 9.856 10.4 26.048 0.576 36.192-9.888 10.176-26.048 10.4-36.192 0.576z" />
<glyph unicode="&#xe905;" glyph-name="clock" d="M512-64c-282.328 0-512 229.672-512 512s229.672 512 512 512 512-229.672 512-512-229.672-512-512-512zM512 896c-247.039 0-448-200.961-448-448s200.961-448 448-448 448 200.961 448 448-200.961 448-448 448zM736 170.664c-8.195 0-16.383 3.117-22.617 9.391l-224 224c-6.016 6.016-9.383 14.164-9.383 22.609v298.672c0 17.664 14.336 32 32 32s32-14.336 32-32v-285.398l214.617-214.617c12.5-12.5 12.5-32.766 0-45.266-6.234-6.273-14.422-9.391-22.617-9.391z" />
<glyph unicode="&#xe906;" glyph-name="cog-cogwheel" d="M797.257 349.257l-47.543 3.657c-5.486 23.771-14.629 45.714-27.429 65.829l31.086 36.571c5.486 7.314 5.486 18.286 0 25.6l-42.057 43.886c38.4 40.229 78.629 96.914 78.629 160.914 0 120.686-140.8 215.771-148.114 219.429-5.486 3.657-14.629 3.657-20.114 0s-148.114-98.743-148.114-219.429c0-29.257 7.314-58.514 23.771-87.771h-21.943c-9.143 0-18.286-7.314-18.286-16.457l-3.657-49.371c-21.943-5.486-43.886-14.629-64-25.6l-38.4 32.914c-7.314 5.486-18.286 5.486-25.6-1.829l-53.029-53.029c-7.314-7.314-7.314-18.286 0-25.6l31.086-36.571c-12.8-20.114-21.943-42.057-27.429-65.829l-47.543-3.657c-9.143 0-16.457-9.143-16.457-18.286v-74.971c0-9.143 7.314-18.286 16.457-18.286l45.714-3.657c5.486-23.771 14.629-45.714 27.429-67.657l-29.257-34.743c-5.486-7.314-5.486-18.286 0-25.6l53.029-53.029c7.314-7.314 18.286-7.314 25.6-1.829l34.743 29.257c21.943-12.8 43.886-21.943 69.486-29.257l3.657-43.886c0-9.143 9.143-16.457 18.286-16.457h74.971c9.143 0 18.286 7.314 18.286 16.457l3.657 43.886c23.771 5.486 47.543 16.457 69.486 29.257l34.743-29.257c7.314-5.486 18.286-5.486 25.6 1.829l53.029 53.029c7.314 7.314 7.314 18.286 0 25.6l-29.257 34.743c12.8 21.943 21.943 43.886 27.429 67.657l45.714 3.657c9.143 0 16.457 9.143 16.457 18.286v74.971c-3.657 5.486-10.971 12.8-20.114 14.629zM629.029 864.914c31.086-21.943 120.686-96.914 120.686-181.029 0-58.514-43.886-111.543-80.457-146.286 0 0-1.829-1.829-1.829-1.829l-1.829-1.829c-7.314-7.314-12.8-12.8-20.114-16.457v168.229c0 10.971-7.314 18.286-18.286 18.286s-18.286-7.314-18.286-18.286v-168.229c-20.114 16.457-45.714 42.057-67.657 71.314-23.771 32.914-34.743 65.829-34.743 96.914 1.829 82.286 91.429 155.429 122.514 179.2zM777.143 272.457l-43.886-3.657c-9.143 0-14.629-7.314-16.457-14.629-5.486-29.257-16.457-54.857-32.914-80.457-3.657-7.314-3.657-16.457 1.829-21.943l27.429-31.086-29.257-29.257-31.086 27.429c-5.486 5.486-16.457 5.486-21.943 1.829-23.771-16.457-51.2-27.429-80.457-32.914-7.314-1.829-14.629-9.143-14.629-16.457l-3.657-43.886h-42.057l-3.657 40.229c0 9.143-7.314 14.629-14.629 16.457-29.257 5.486-56.686 16.457-80.457 32.914-7.314 5.486-16.457 3.657-21.943-1.829l-31.086-27.429-29.257 29.257 27.429 31.086c5.486 5.486 5.486 14.629 1.829 21.943-16.457 23.771-27.429 51.2-32.914 80.457-1.829 9.143-9.143 14.629-16.457 14.629l-43.886 3.657v42.057l43.886 3.657c7.314 0 14.629 7.314 16.457 14.629 5.486 27.429 16.457 53.029 32.914 76.8 5.486 7.314 3.657 16.457-1.829 21.943l-27.429 38.4 29.257 29.257 34.743-31.086c5.486-5.486 14.629-5.486 21.943-1.829 23.771 16.457 49.371 25.6 76.8 31.086 7.314 1.829 14.629 9.143 14.629 16.457l3.657 47.543h29.257c23.771-32.914 53.029-58.514 73.143-74.971 0 0 1.829 0 1.829-1.829 7.314-5.486 12.8-9.143 16.457-12.8v-175.543c0-54.857-43.886-98.743-98.743-98.743s-98.743 43.886-98.743 98.743c0 54.857 43.886 98.743 98.743 98.743 10.971 0 18.286 7.314 18.286 18.286s-7.314 18.286-18.286 18.286c-74.971 0-135.314-60.343-135.314-135.314s60.343-135.314 135.314-135.314 135.314 60.343 135.314 135.314v175.543c7.314 5.486 20.114 14.629 34.743 27.429l31.086-31.086-29.257-34.743c-5.486-5.486-5.486-16.457-1.829-21.943 16.457-23.771 27.429-49.371 32.914-76.8 1.829-7.314 9.143-14.629 16.457-14.629l43.886-3.657v-40.229z" />
<glyph unicode="&#xe907;" glyph-name="comment" d="M853.248 805.76h-682.496c-37.696 0-68.224-30.56-68.224-68.256v-443.776c0-37.696 30.56-68.256 68.224-68.256h478.976l135.232-135.232v135.232h68.288c37.696 0 68.256 30.56 68.256 68.256v443.776c0 37.696-30.56 68.256-68.256 68.256zM887.36 293.728c0-18.816-15.328-34.112-34.112-34.112h-102.4v-86.976l-86.976 86.976h-493.12c-18.816 0-34.112 15.296-34.112 34.112v443.776c0 18.816 15.328 34.112 34.112 34.112h682.496c18.816 0 34.112-15.296 34.112-34.112v-443.776zM512 549.632c-18.848 0-34.112-15.296-34.112-34.112s15.264-34.112 34.112-34.112 34.112 15.264 34.112 34.112c0 18.816-15.264 34.112-34.112 34.112zM648.48 549.632c-18.848 0-34.112-15.296-34.112-34.112s15.264-34.112 34.112-34.112 34.112 15.264 34.112 34.112c0 18.816-15.264 34.112-34.112 34.112zM378.72 549.632c-18.848 0-34.112-15.296-34.112-34.112s15.264-34.112 34.112-34.112 34.112 15.264 34.112 34.112c0 18.816-15.264 34.112-34.112 34.112z" />
<glyph unicode="&#xe908;" glyph-name="discuss" d="M528 320h224c8.832 0 16 7.168 16 16v0c0 8.832-7.168 16-16 16h-224c-8.832 0-16-7.168-16-16v0c0-8.832 7.168-16 16-16zM528 256h224c8.832 0 16 7.168 16 16v0c0 8.832-7.168 16-16 16h-224c-8.832 0-16-7.168-16-16v0c0-8.832 7.168-16 16-16zM496 736h-224c-8.832 0-16-7.168-16-16v0c0-8.832 7.168-16 16-16h224c8.832 0 16 7.168 16 16v0c0 8.832-7.168 16-16 16zM496 672h-224c-8.832 0-16-7.168-16-16v0c0-8.832 7.168-16 16-16h224c8.832 0 16 7.168 16 16v0c0 8.832-7.168 16-16 16zM496 608h-224c-8.832 0-16-7.168-16-16v0c0-8.832 7.168-16 16-16h224c8.832 0 16 7.168 16 16v0c0 8.832-7.168 16-16 16zM704 576v224c0 53.024-42.976 96-96 96h-448c-53.024 0-96-42.976-96-96v-288c0-53.024 42.976-96 96-96h128l32-32v-192c0-53.024 42.976-96 96-96h128l73.376-73.376c12.512-12.512 32.768-12.512 45.248 0l73.376 73.376h128c53.024 0 96 42.976 96 96v288c0 53.024-42.976 96-96 96h-160zM301.248 448h-141.248c-35.36 0-64 28.64-64 64v288c0 35.36 28.64 64 64 64h448c35.36 0 64-28.64 64-64v-288c0-35.36-28.64-64-64-64h-141.248l-82.752-82.752-82.752 82.752zM864 128h-141.248l-82.752-82.752-82.752 82.752h-141.248c-35.36 0-64 28.64-64 64v160l9.376-9.376c12.512-12.512 32.768-12.512 45.248 0l73.376 73.376h128c53.024 0 96 42.976 96 96v32h160c35.36 0 64-28.64 64-64v-288c0-35.36-28.64-64-64-64z" />
<glyph unicode="&#xe909;" glyph-name="down-arrow" d="M496.835 433.022c8.322-8.322 21.765-8.322 30.087 0l490.78 490.78c8.108 8.536 7.896 21.979-0.426 30.087-8.322 7.896-21.339 7.896-29.661 0l-475.631-475.631-475.631 475.633c-8.534 8.322-21.977 8.108-30.299-0.428-7.896-8.322-7.896-21.339 0-29.661l490.78-490.78zM1017.49 463.109c-8.536 8.108-21.551 8.108-29.873 0l-475.631-475.631-475.631 475.631c-8.536 8.108-21.979 7.896-30.087-0.426-7.896-8.322-7.896-21.339 0-29.661l490.78-490.78c8.322-8.322 21.765-8.322 30.087 0l490.78 490.78c8.108 8.536 7.896 21.979-0.426 30.087z" />
<glyph unicode="&#xe90a;" glyph-name="draw-check-mark" d="M412.705-38.958c33.113-33.515 106.863-22.406 114.804 30.293 49.405 327.18 296.619 603.198 483.698 863.29 51.872 72.075-67.4 140.543-118.597 69.326-170.956-237.651-386.429-487.72-470.725-776.098-96.33 98.448-193.049 195.963-301.092 282.471-68.424 54.808-166.3-41.75-97.139-97.135 140.766-112.752 262.416-244.233 389.052-372.148z" />
<glyph unicode="&#xe90b;" glyph-name="earthquake-and-home" d="M721.794 676.226l-183.648 136.44c-11.886 8.829-29.79 8.797-41.637-0.084l-182.019-136.393c-6.575-4.927-7.912-14.252-2.985-20.825 4.927-6.578 14.252-7.914 20.825-2.985l182.019 136.393c1.274 0.955 3.816 1.574 6.055 0.012l183.646-136.44c2.665-1.981 5.775-2.936 8.859-2.936 4.547 0 9.033 2.075 11.953 6.005 4.902 6.595 3.528 15.913-3.067 20.812zM1011.603 355.287c0 0-154.654 0-206.203 0-11.363 0-10.485 9.422-10.485 9.422v263.133c0 0-0.568 6.583 7.178 6.583 7.294 0 29.185 0 29.185 0 12.806 0 19.912 7.411 22.292 14.348 2.383 6.935 1.326 17.15-8.777 25.015l-56.156 43.725c-2.66 2.531-3.124 5.559-3.124 7.101v98.683c0 15.722-12.791 28.513-28.513 28.513h-66.731c-15.722 0-28.513-12.791-28.513-28.513 0 0 0-1.778 0-2.37 0-5.477-3.806-1.661-3.806-1.661l-121.36 94.493c-5.328 4.151-12.164 6.437-19.248 6.437s-13.917-2.286-19.25-6.437l-308.199-239.971c-10.106-7.865-11.162-18.080-8.78-25.015 2.38-6.937 9.486-14.348 22.292-14.348 0 0 23.522 0 31.362 0 5.532 0 4.999-5.963 4.999-5.963v-266.691c0 0 0.893-6.484-8.715-6.484-54.664 0-218.653 0-218.653 0-6.818 0-12.397-5.579-12.397-12.397v-354.688c0-6.818 5.579-12.397 12.397-12.397h12.397c6.818 0 12.397 5.579 12.397 12.397v317.497c0 6.818 5.579 12.397 12.397 12.397h924.823c6.818 0 12.397-5.579 12.397-12.397v-317.497c0-6.818 5.579-12.397 12.397-12.397h12.397c6.818 0 12.397 5.579 12.397 12.397v354.688c0 6.818-5.579 12.397-12.397 12.397zM698.946 812.4c0 2.169 2.162 2.219 2.162 2.219h44.468c0 0 2.745 0.107 2.745-2.839 0-14.368 0-40.638 0-54.185 0-3.409-1.889-1.718-1.889-1.718l-46.313 38.456c-0.441 0.568-1.175 1.178-1.175 2.499 0.002 0 0.002 11.678 0.002 15.568zM470.658 447.435c-0.007 0.218-0.169 22.364 12.724 35.709 7.332 7.59 17.78 11.276 31.942 11.276 46.075 0 48.46-39.576 48.473-47.387-0.069-5.519-0.126-14.547-0.126-20.066l-0.015-64.262c0 0 0.412-7.418-8.733-7.418-19.401 0-54.443 0-77.611 0-6.637 0-6.303 5.1-6.303 5.1v66.582c0.002 5.678-0.156 14.862-0.352 20.465zM609.317 355.287c-8.678 0-8.455 7.704-8.455 7.704v63.976c0 5.393 0.057 14.212 0.121 19.605 0.050 3.759-0.243 37.417-24.38 61.852-15.194 15.385-35.81 23.188-61.279 23.188-24.435 0-44.181-7.612-58.688-22.627-23.753-24.583-23.279-58.988-23.145-62.833 0.179-5.165 0.33-13.949 0.33-19.183v-66.786c0 0 0.181-4.897-5.398-4.897-36.016 0-106.699 0-144.067 0-7.694 0-7.401 6.799-7.401 6.799v281.017c0 14.356-11.128 24.179-24.487 28.231-3.754 1.138-0.079 3.984-0.079 3.984l259.032 201.686c0 0 2.906 2.708 5.951 2.708 2.737 0 5.603-2.487 5.603-2.487l258.293-201.111c0 0 6.102-3.952-0.384-5.001-13.238-2.14-23.16-14.115-23.16-28.010v-278.198c0 0 0.771-9.618-10.176-9.618-34.558 0.002-101.131 0.002-138.233 0.002zM916.346 148.744h-97.491c-6.818 0-15.955-4.297-20.299-9.553l-61.549-74.402c-4.344-5.254-9.707-4.275-11.916 2.177l-30.792 89.946c-2.209 6.451-9.504 10.738-16.213 9.528l-85.696-15.472c-6.712-1.21-13.124 3.3-14.249 10.024l-17.646 105.326c-1.126 6.724-5.452 7.805-9.615 2.408l-155.405-201.656c-4.163-5.403-9.186-4.483-11.165 2.043l-50.945 167.981c-1.979 6.526-7.228 7.627-11.663 2.45l-79.746-93.072c-4.436-5.18-13.644-9.414-20.463-9.414h-105.958c-6.818 0-12.397-5.579-12.397-12.397v-4.959c0-6.818 5.579-12.397 12.397-12.397h119.652c6.818 0 16.027 4.235 20.463 9.414l53.335 62.248c4.436 5.177 9.685 4.076 11.663-2.45l51.961-171.333c1.979-6.526 7.002-7.446 11.165-2.043l149.035 193.39c4.163 5.4 8.49 4.314 9.615-2.41l11.351-67.763c1.126-6.724 7.537-11.237 14.249-10.027l90.194 16.285c6.709 1.21 14.004-3.077 16.213-9.528l39.718-116.029c2.209-6.451 7.572-7.431 11.919-2.177l86.49 104.552c4.346 5.254 13.483 9.553 20.301 9.553h83.492c6.818 0 12.397 5.579 12.397 12.397v4.959c-0.005 6.823-5.584 12.402-12.402 12.402z" />
<glyph unicode="&#xe90c;" glyph-name="envelope" d="M989.553-48.961c0.085 0.7 0.41 1.314 0.41 2.031v587.945c0 4.609-1.844 8.996-5.138 12.205l-376.122 367.672c-53.344 52.149-140.094 52.149-193.404 0l-376.122-367.672c-3.277-3.209-5.138-7.596-5.138-12.205v-587.945c0-0.819 0.358-1.502 0.461-2.287 0.171-1.195 0.29-2.356 0.717-3.516s1.075-2.134 1.724-3.158c0.427-0.666 0.597-1.417 1.127-2.048 0.154-0.188 0.393-0.256 0.546-0.444 0.819-0.905 1.826-1.536 2.834-2.253 0.836-0.58 1.588-1.263 2.492-1.69 0.939-0.444 1.963-0.597 2.987-0.854 1.161-0.29 2.253-0.632 3.431-0.7 0.256-0.017 0.478-0.154 0.751-0.154h921.784c2.526 0 4.865 0.615 7.016 1.588 0.58 0.273 1.041 0.751 1.605 1.075 1.553 0.939 2.953 1.98 4.131 3.346 0.222 0.256 0.529 0.341 0.734 0.597 0.444 0.58 0.563 1.263 0.922 1.878 0.597 1.007 1.144 1.98 1.536 3.107 0.41 1.178 0.58 2.304 0.717 3.482zM68.178 500.764l345.618-240.432c-106.108-73.231-278.481-214.946-345.618-270.766v511.198zM440.903 237.56c41.156 27.944 96.344 27.773 136.527 0.171l345.533-267.591h-824.741c73.589 61.043 242.532 199.43 342.682 267.42zM606.91 258.044l348.912 242.719v-512.888l-348.912 270.168zM439.179 896.482c40.183 39.278 105.527 39.278 145.659 0l365.88-357.669-375.269-261.036c-40.627 18.931-87.945 19.323-128.913 1.4l-373.254 259.653 365.897 357.652zM380.441 572.595c3.329-3.329 7.699-5.002 12.069-5.002s8.74 1.673 12.069 5.002l90.352 90.352v-283.124c0-9.44 7.63-17.070 17.070-17.070s17.070 7.63 17.070 17.070v283.124l90.352-90.352c3.329-3.329 7.699-5.002 12.069-5.002s8.74 1.673 12.069 5.002c6.674 6.674 6.674 17.463 0 24.137l-119.473 119.473c-1.57 1.588-3.465 2.834-5.565 3.704-4.165 1.724-8.859 1.724-13.042 0-2.1-0.871-3.994-2.134-5.565-3.704l-119.473-119.473c-6.674-6.674-6.674-17.48 0-24.137z" />
<glyph unicode="&#xe90d;" glyph-name="fire" d="M862.631 448.94l-0.578 2.232c-88.57 277.959-352.668 475.288-363.868 483.551l-34.263 25.277 2.34-42.508c0.088-1.625 7.099-164.2-151.892-300.691-171.836-147.536-170.905-269.228-170.406-334.606l0.049-9.007c0-176.959 129.012-309.575 314.021-332.987 15.627-2.841 31.667-4.203 47.565-4.203 2.128 0 4.174 0.303 6.294 0.35 1.747-0.018 3.415-0.214 5.168-0.214 203.574 0 363.035 163.866 363.035 373.060 0.002 50.108-16.749 136.102-17.464 139.745zM659.242 107.247c-7.714-69.999-57.938-122.062-124.98-129.541-4.965-0.55-11.591-1.089-19.184-1.391-18.421 0.079-36.159 1.499-53.464 3.68-42.358 8.084-86.426 31.463-93.323 93.164l-1.44 12.218c-5.091 42.743-10.357 86.955 80.024 183.956 34.001 36.497 64.34 75.365 90.431 115.816 43.282-50.145 76.91-100.133 100.251-149.064 21.41-42.824 22.996-116.955 21.685-128.839zM665.736 12.686c17.853 25.489 29.62 56.148 33.371 90.173 1.91 17.309 0.352 99.094-25.513 150.825-27.971 58.642-69.803 118.655-124.353 178.395l-18.201 19.952-13.823-23.202c-27.637-46.365-61.167-90.833-99.672-132.166-103.079-110.607-96.109-169.075-90.509-216.047l1.419-12.043c2.362-21.131 8.278-39.124 16.657-54.612-99.414 48.96-161.001 142.15-161.001 259.225l-0.049 9.32c-0.45 58.858-1.293 168.447 156.425 303.863 125.489 107.73 156.417 229.733 163.768 292.077 71.516-60.072 251.515-227.208 319.234-438.341 1.959-10.202 16.507-87.542 16.507-130.912 0-131.034-70.005-241.896-174.261-296.508z" />
<glyph unicode="&#xe90e;" glyph-name="healthcare-device" d="M782.162 960h-474.962c-112.159 0-204.281-87.378-211.903-197.634-37.505-7.39-65.885-40.513-65.885-80.153v-65.362c0-39.457 28.114-72.467 65.362-80.057v-388.368c0-117.133 95.293-212.426 212.426-212.426h474.962c117.133 0 212.426 95.293 212.426 212.426v599.149c0 117.133-95.293 212.426-212.426 212.426zM94.774 570.64c-19.018 6.745-32.681 24.909-32.681 46.211v65.362c0 21.301 13.663 39.465 32.681 46.211v-157.783zM961.906 148.426c0-99.11-80.635-179.745-179.745-179.745h-474.962c-99.11 0-179.745 80.635-179.745 179.745v599.149c0 99.11 80.635 179.745 179.745 179.745h474.962c99.11 0 179.745-80.635 179.745-179.745v-599.149zM912.885 251.915h-736.409c-9.026 0-16.34-7.314-16.34-16.34v-87.149c0-81.092 65.972-147.064 147.064-147.064h474.962c81.092 0 147.064 65.972 147.064 147.064v87.149c0 9.026-7.314 16.34-16.34 16.34zM896.545 148.426c0-63.070-51.313-114.383-114.383-114.383h-110.026v136.17c0 9.026-7.314 16.34-16.34 16.34s-16.34-7.314-16.34-16.34v-136.17h-332.255c-63.070 0-114.383 51.313-114.383 114.383v70.809h703.728v-70.809zM782.162 894.638h-474.962c-81.092 0-147.064-65.972-147.064-147.064v-446.638c0-9.026 7.314-16.34 16.34-16.34s16.34 7.314 16.34 16.34v446.638c0 63.070 51.313 114.383 114.383 114.383h474.962c63.070 0 114.383-51.313 114.383-114.383v-446.638c0-9.026 7.314-16.34 16.34-16.34s16.34 7.314 16.34 16.34v446.638c0 81.092-65.972 147.064-147.064 147.064zM416.136 418.134c5.12 0 9.942 2.401 13.031 6.482l136.063 179.843c12.924 17.086 19.754 37.457 19.754 58.917 0 53.884-43.84 97.724-97.724 97.724-27.241 0-52.884-11.388-71.127-30.744-18.24 19.358-43.886 30.744-71.127 30.744-53.884 0-97.724-43.84-97.724-97.724 0-21.46 6.832-41.831 19.754-58.917l136.063-179.843c3.094-4.081 7.915-6.482 13.035-6.482zM279.966 663.376c0 35.866 29.18 65.044 65.044 65.044 23.574 0 45.357-12.824 56.849-33.467 2.882-5.181 8.347-8.395 14.277-8.395s11.393 3.214 14.277 8.395c11.491 20.646 33.273 33.467 56.849 33.467 35.866 0 65.044-29.18 65.044-65.044 0-14.284-4.543-27.838-13.138-39.197l-123.033-162.62-123.033 162.62c-8.595 11.358-13.138 24.914-13.138 39.197zM655.796 728.419h169.94c9.026 0 16.34 7.314 16.34 16.34s-7.314 16.34-16.34 16.34h-169.94c-9.026 0-16.34-7.314-16.34-16.34s7.314-16.34 16.34-16.34zM655.796 624.991h169.94c9.026 0 16.34 7.314 16.34 16.34s-7.314 16.34-16.34 16.34h-169.94c-9.026 0-16.34-7.314-16.34-16.34s7.314-16.34 16.34-16.34zM655.796 521.562h169.94c9.026 0 16.34 7.314 16.34 16.34s-7.314 16.34-16.34 16.34h-169.94c-9.026 0-16.34-7.314-16.34-16.34s7.314-16.34 16.34-16.34zM655.796 418.134h169.94c9.026 0 16.34 7.314 16.34 16.34s-7.314 16.34-16.34 16.34h-169.94c-9.026 0-16.34-7.314-16.34-16.34s7.314-16.34 16.34-16.34z" />
<glyph unicode="&#xe90f;" glyph-name="health-healthcare-medical" d="M512.694-11.912c-5.112 0-10.224 1.948-14.128 5.844-20.094 20.054-40.528 40.232-60.29 59.748-198.288 195.82-385.582 380.782-385.582 585.712 0 63.45 24.832 129.748 68.128 181.892 46.478 55.976 106.362 86.804 168.618 86.804 111.324 0 174.7-74.248 223.252-162.194 48.542 87.946 111.854 162.194 222.898 162.194 62.406 0 122.396-30.824 168.924-86.796 43.33-52.124 68.18-118.424 68.18-181.9 0-204.438-186.626-388.94-384.21-584.274-20.208-19.978-41.106-40.638-61.65-61.174-3.904-3.904-9.024-5.856-14.14-5.856zM289.44 868.086c-110.802 0-196.746-122.938-196.746-228.696 0-188.214 181.516-367.47 373.69-557.25 15.184-14.996 30.762-30.38 46.3-45.818 15.996 15.918 32.042 31.784 47.68 47.242 191.474 189.294 372.332 368.090 372.332 555.828 0 105.758-86.1 228.696-197.104 228.696-97.708 0-152.624-69.648-205.016-174.222-3.39-6.768-10.312-11.042-17.882-11.042s-14.49 4.274-17.882 11.042c-52.394 104.574-107.368 174.22-205.372 174.22zM712.696 468.086c-6.688 0-12.932 3.342-16.64 8.906l-63.36 95.038-63.36-95.038c-3.708-5.564-9.954-8.906-16.64-8.906s-12.932 3.342-16.64 8.906l-63.36 95.038-63.36-95.038c-3.708-5.564-9.954-8.906-16.64-8.906s-12.932 3.342-16.64 8.906l-63.36 95.038-63.36-95.038c-3.708-5.564-9.954-8.906-16.64-8.906s-12.932 3.342-16.64 8.906l-34.064 51.094h-129.298c-11.046 0-20 8.954-20 20s8.954 20 20 20h140c6.688 0 12.932-3.342 16.64-8.906l23.36-35.038 63.36 95.038c3.708 5.564 9.954 8.906 16.64 8.906s12.932-3.342 16.64-8.906l63.36-95.038 63.36 95.038c3.708 5.564 9.954 8.906 16.64 8.906s12.932-3.342 16.64-8.906l63.36-95.040 63.36 95.040c3.708 5.564 9.954 8.906 16.64 8.906s12.932-3.342 16.64-8.906l63.36-95.038 63.36 95.038c3.956 5.932 10.782 9.318 17.882 8.868 7.116-0.442 13.458-4.64 16.646-11.016l34.472-68.944h127.638c11.044 0 20-8.954 20-20s-8.956-20-20-20h-140c-7.576 0-14.5 4.28-17.888 11.056l-24.588 49.174-60.882-91.324c-3.708-5.566-9.952-8.908-16.638-8.908z" />
<glyph unicode="&#xe910;" glyph-name="home" d="M438.294 464.102c132.853 79.838 209.117 226.193 199.025 381.97-0.426 6.619-4.061 12.609-9.726 16.041-132.244 80.142-296.102 80.812-427.675 1.746-132.873-79.797-209.137-226.173-199.025-381.97 0.426-6.619 4.061-12.609 9.726-16.041 66.619-40.386 141.239-60.589 215.736-60.589 73.401 0 146.66 19.614 211.939 58.843zM220.812 829.076c115.574 69.442 258.883 70.64 376.508 3.716 5.056-136.528-63.208-263.736-179.959-333.888-115.574-69.442-258.863-70.64-376.487-3.736-5.056 136.569 63.188 263.756 179.939 333.909zM824.081 863.878c-42.985 25.827-89.604 43.391-138.558 52.223-11.127 2.071-21.604-5.34-23.594-16.365-1.99-11.046 5.34-21.604 16.365-23.594 44.102-7.959 86.091-23.797 124.853-47.066 116.751-70.152 185.015-197.36 179.959-333.888-117.604-66.904-260.893-65.746-376.508 3.736-9.604 5.746-22.091 2.66-27.878-6.944-5.766-9.624-2.66-22.091 6.944-27.878 65.299-39.228 138.538-58.822 211.919-58.822 74.497 0 149.157 20.223 215.756 60.589 5.665 3.431 9.299 9.421 9.726 16.041 10.132 155.777-66.132 302.132-198.985 381.97zM905.604 399.452c-10.985 1.726-21.482-5.827-23.228-16.893l-58.213-368.65h-615.025l-58.213 368.65c-1.726 11.086-12.244 18.619-23.228 16.893-11.086-1.746-18.64-12.142-16.893-23.228l60.914-385.787c1.563-9.868 10.071-17.137 20.061-17.137h649.746c9.99 0 18.497 7.269 20.061 17.137l60.914 385.787c1.746 11.086-5.807 21.482-16.893 23.228zM496.345 338.802c0 11.208-9.096 20.305-20.305 20.305h-101.523c-11.208 0-20.305-9.096-20.305-20.305v-101.523c0-11.208 9.096-20.305 20.305-20.305h101.523c11.208 0 20.305 9.096 20.305 20.305v101.523zM455.736 257.584h-60.914v60.914h60.914v-60.914zM679.086 338.802c0 11.208-9.096 20.305-20.305 20.305h-101.523c-11.208 0-20.305-9.096-20.305-20.305v-101.523c0-11.208 9.096-20.305 20.305-20.305h101.523c11.208 0 20.305 9.096 20.305 20.305v101.523zM638.477 257.584h-60.914v60.914h60.914v-60.914zM476.041 196.67h-101.523c-11.208 0-20.305-9.096-20.305-20.305v-101.523c0-11.208 9.096-20.305 20.305-20.305h101.523c11.208 0 20.305 9.096 20.305 20.305v101.523c0 11.208-9.076 20.305-20.305 20.305zM455.736 95.147h-60.914v60.914h60.914v-60.914zM658.782 196.67h-101.523c-11.208 0-20.305-9.096-20.305-20.305v-101.523c0-11.208 9.096-20.305 20.305-20.305h101.523c11.208 0 20.305 9.096 20.305 20.305v101.523c0 11.208-9.076 20.305-20.305 20.305zM638.477 95.147h-60.914v60.914h60.914v-60.914z" />
<glyph unicode="&#xe911;" glyph-name="home-1" d="M74.047 629.592l355.176 267.83 355.176-267.83c5.008-3.778 10.878-5.604 16.704-5.604 8.421 0 16.74 3.814 22.2 11.057 9.239 12.251 6.794 29.669-5.457 38.908l-371.9 280.447c-9.898 7.469-23.554 7.469-33.452 0l-371.896-280.447c-12.251-9.239-14.692-26.657-5.457-38.908 9.235-12.247 26.653-14.688 38.904-5.453zM962.633 216.915c34.019 42.087 41.357 99.112 19.145 148.823-21.919 49.060-66.689 79.956-119.749 82.647-2.711 0.139-5.441 0.21-8.187 0.21-8.493 0-16.803-0.742-24.939-2.028v86.909c0 8.719-4.092 16.93-11.057 22.181l-371.9 280.447c-9.898 7.469-23.554 7.469-33.452 0l-371.9-280.447c-6.961-5.25-11.057-13.462-11.057-22.181v-472.175c0-15.343 12.438-27.78 27.78-27.78h572.887l70.487-87.203c5.274-6.524 13.216-10.318 21.605-10.318s16.331 3.794 21.605 10.318l78.65 97.303c0.008 0.008 0.012 0.016 0.020 0.024l140.061 173.27zM85.103 519.626l344.119 259.496 344.119-259.496v-92.985c-20.3-11.942-37.777-28.197-51.044-47.576-28.729 41.948-76.975 69.526-131.548 69.526-2.746 0-5.473-0.071-8.179-0.206-53.068-2.691-97.838-33.586-119.757-82.647-22.208-49.707-14.874-106.736 19.149-148.823l103.335-127.837h-500.193v430.548zM525.172 251.843c-20.811 25.748-25.268 60.704-11.628 91.231 13.219 29.586 40.079 48.211 71.852 49.822 1.774 0.087 3.56 0.135 5.358 0.135 57.216 0 103.768-46.548 103.768-103.768 0-15.343 12.438-27.78 27.78-27.78s27.78 12.438 27.78 27.78c0 57.216 46.548 103.768 103.764 103.768 1.798 0 3.584-0.048 5.366-0.139 31.769-1.611 58.625-20.236 71.844-49.822 13.64-30.527 9.183-65.482-11.628-91.231l-197.125-243.872-197.129 243.876z" />
<glyph unicode="&#xe912;" glyph-name="insurance" d="M512 486.043c57.825 0 104.866 47.044 104.866 104.866s-47.044 104.866-104.866 104.866-104.866-47.044-104.866-104.866 47.042-104.866 104.866-104.866zM512 632.733c23.062 0 41.822-18.762 41.822-41.822s-18.762-41.822-41.822-41.822-41.822 18.762-41.822 41.822 18.76 41.822 41.822 41.822zM512 426.846c-98.266 0-178.212-79.945-178.212-178.212v-31.522h356.425v31.522c0 98.266-79.947 178.212-178.212 178.212zM401.218 280.156c13.744 48.227 58.205 83.645 110.782 83.645s97.038-35.418 110.782-83.645h-221.564zM979.694 781.683c-25.867-4.277-52.203-6.445-78.276-6.445-136.319-0.004-266.555 57.247-366.718 161.201l-22.7 23.562-22.7-23.56c-100.153-103.948-230.39-161.197-366.718-161.201-26.063 0-52.398 2.167-78.276 6.445l-38.157 6.307 1.519-38.646c5.96-151.765 35.318-288.683 87.254-406.949 41.866-95.336 98.381-178.776 167.976-248.003 119.272-118.644 235.203-154.241 240.080-155.697l9.024-2.696 9.024 2.696c4.878 1.456 120.806 37.053 240.080 155.697 69.593 69.227 126.108 152.667 167.976 248.003 51.936 118.265 81.292 255.184 87.254 406.949l1.519 38.646-38.161-6.309zM719.125 141.572c-89.998-90.448-179.116-128.783-207.184-139.314-27.744 10.316-114.895 47.615-204.584 136.832-97.013 96.502-214.4 273.71-234.709 575.421 16.64-1.54 33.336-2.318 49.936-2.318 77.043 0.002 152.557 16.226 224.445 48.219 60.451 26.903 115.821 63.801 164.971 109.887 49.154-46.094 104.52-82.988 164.969-109.891 71.888-31.995 147.403-48.214 224.449-48.212 16.6 0 33.292 0.778 49.927 2.318-16.146-238.586-96.061-436.103-232.221-572.941z" />
<glyph unicode="&#xe913;" glyph-name="line-chart" d="M823.163 618.667h-119.163c-11.782 0-21.333 9.551-21.333 21.333s9.551 21.333 21.333 21.333h170.667c11.782 0 21.333-9.551 21.333-21.333v-170.667c0-11.782-9.551-21.333-21.333-21.333s-21.333 9.551-21.333 21.333v119.163l-219.582-219.582c-8.331-8.331-21.839-8.331-30.17 0l-112.915 112.915-155.582-155.582c-8.331-8.331-21.839-8.331-30.17 0s-8.331 21.839 0 30.17l170.667 170.667c8.331 8.331 21.839 8.331 30.17 0l112.915-112.915 204.497 204.497zM874.667 192c11.782 0 21.333-9.551 21.333-21.333s-9.551-21.333-21.333-21.333h-640c-58.91 0-106.667 47.756-106.667 106.667v384c0 11.782 9.551 21.333 21.333 21.333s21.333-9.551 21.333-21.333v-384c0-35.346 28.654-64 64-64h640z" />
<glyph unicode="&#xe914;" glyph-name="link" d="M964.082 900.084c-79.907 79.891-209.428 79.891-289.334 0l-217.004-217.006c-20.804-20.804-35.908-45.038-45.876-70.811 18.432 0.7 36.846-0.154 55.040-3.414 7.048 13.62 15.582 26.658 27 38.058l217.006 217.006c59.836 59.836 157.167 59.836 217.004 0s59.836-157.167 0-217.004l-217.004-217.004c-59.818-59.818-157.167-59.836-217.004 0-21.88 21.88-51.234 31.3-79.891 29.202 9.984-23.722 24.406-46.046 43.724-65.367 79.891-79.891 209.428-79.891 289.334 0l217.004 217.004c79.891 79.889 79.891 209.444 0 289.334zM557.090 287.145c-7.066-13.62-15.598-26.658-27-38.058l-217.004-217.004c-59.818-59.818-157.167-59.836-217.004 0s-59.818 157.167 0 217.004l217.004 217.004c59.836 59.836 157.167 59.836 217.004 0 21.88-21.88 51.234-31.318 79.891-29.202-9.966 23.722-24.406 46.046-43.724 65.367-79.891 79.891-209.428 79.891-289.334 0l-217.006-217.004c-79.891-79.891-79.891-209.428 0-289.334 79.891-79.891 209.428-79.891 289.334 0l217.004 217.004c20.804 20.804 35.908 45.038 45.876 70.811-18.432-0.698-36.848 0.156-55.040 3.414z" />
<glyph unicode="&#xe915;" glyph-name="location" d="M818.25 833.148c-81.8 81.802-190.562 126.852-306.247 126.852s-224.448-45.050-306.249-126.852c-81.802-81.804-126.852-190.564-126.852-306.247 0-234.024 221.276-428.675 340.155-533.247 16.52-14.532 30.786-27.082 42.152-37.698 14.24-13.302 32.518-19.954 50.792-19.954 18.278 0 36.552 6.652 50.794 19.954 11.366 10.618 25.632 23.166 42.152 37.698 118.878 104.574 340.155 299.223 340.155 533.247-0.002 115.682-45.050 224.442-126.852 306.247zM565.327 38.69c-16.882-14.85-31.46-27.676-43.48-38.902-5.522-5.154-14.17-5.156-19.694 0-12.018 11.23-26.598 24.054-43.48 38.904-111.76 98.31-319.791 281.309-319.791 488.207 0 205.736 167.378 373.115 373.117 373.115 205.736 0 373.115-167.378 373.115-373.115 0.002-206.898-208.026-389.897-319.787-488.209zM512.003 734.124c-105.242 0-190.862-85.618-190.862-190.86s85.62-190.86 190.862-190.86 190.86 85.618 190.86 190.86-85.618 190.86-190.86 190.86zM512.003 412.389c-72.166 0-130.878 58.712-130.878 130.876s58.712 130.876 130.878 130.876 130.876-58.712 130.876-130.876-58.71-130.876-130.876-130.876z" />
<glyph unicode="&#xe916;" glyph-name="menu" d="M512 960c-282.313 0-512-229.687-512-512s229.687-512 512-512 512 229.687 512 512-229.687 512-512 512zM512-27.429c-262.162 0-475.429 213.285-475.429 475.429s213.266 475.429 475.429 475.429 475.429-213.285 475.429-475.429-213.266-475.429-475.429-475.429zM274.286 649.143h475.429c10.112 0 18.286 8.192 18.286 18.286s-8.174 18.286-18.286 18.286h-475.429c-10.112 0-18.286-8.192-18.286-18.286s8.174-18.286 18.286-18.286zM822.857 393.143h-621.714c-10.112 0-18.286-8.192-18.286-18.286s8.174-18.286 18.286-18.286h621.714c10.112 0 18.286 8.192 18.286 18.286s-8.174 18.286-18.286 18.286zM822.857 539.429h-621.714c-10.112 0-18.286-8.192-18.286-18.286s8.174-18.286 18.286-18.286h621.714c10.112 0 18.286 8.192 18.286 18.286s-8.174 18.286-18.286 18.286zM749.714 246.857h-475.429c-10.112 0-18.286-8.192-18.286-18.286s8.174-18.286 18.286-18.286h475.429c10.112 0 18.286 8.192 18.286 18.286s-8.174 18.286-18.286 18.286z" />
<glyph unicode="&#xe917;" glyph-name="minus" d="M810.667 405.333h-597.333c-23.564 0-42.667 19.103-42.667 42.667s19.103 42.667 42.667 42.667v0h597.333c23.564 0 42.667-19.103 42.667-42.667s-19.103-42.667-42.667-42.667v0z" />
<glyph unicode="&#xe918;" glyph-name="money" d="M688.554 273.152c-1.638-1.416-40.022-35.414-40.022-98.218v-85.334c0-9.42 7.628-17.066 17.066-17.066s17.066 7.646 17.066 17.066v85.334c0 46.66 27.188 71.476 29.132 73.268l119.466 119.466c6.776 6.776 15.224 10.7 23.79 11.042 8.704 0.376 16.18-2.764 22.408-8.976 6.212-6.23 9.336-13.978 8.978-22.408-0.342-8.568-4.266-17.016-11.042-23.79l-85.328-85.336c-6.674-6.674-6.674-17.46 0-24.132 6.672-6.674 17.46-6.674 24.132 0l85.334 85.316c12.852 12.852 20.31 29.388 21.026 46.558 0.734 17.938-5.99 34.97-18.962 47.924-12.97 12.954-29.782 19.626-47.94 18.962-17.152-0.716-33.69-8.174-46.524-21.026l-118.58-118.65zM187.734 89.6c4.37 0 8.738 1.672 12.066 5 6.674 6.674 6.674 17.46 0 24.132l-137.506 137.42c-1.144 1.006-28.16 25.106-28.16 72.38v256c0 18.824 15.308 34.134 34.134 34.134 18.824 0 34.134-15.308 34.134-34.134v-135.116c0-9.42 7.628-17.066 17.066-17.066s17.066 7.646 17.066 17.066v135.116c0 37.65-30.618 68.266-68.266 68.266-37.65 0.002-68.268-30.616-68.268-68.264v-256c0-63.726 38.554-96.99 39.134-97.4l136.534-136.534c3.328-3.328 7.696-5 12.066-5zM103.442 345.942c0.716-17.17 8.174-33.706 21.026-46.54l85.334-85.334c6.674-6.674 17.46-6.674 24.132 0s6.672 17.46 0 24.132l-85.334 85.35c-6.776 6.758-10.7 15.206-11.042 23.774-0.358 8.43 2.764 16.18 8.978 22.408 6.23 6.212 13.756 9.352 22.408 8.976 8.568-0.342 17.016-4.266 23.79-11.042l120.268-120.218c1.144-1.042 28.33-25.856 28.33-72.516v-85.332c0-9.42 7.628-17.066 17.066-17.066s17.066 7.646 17.066 17.066v85.334c0 62.806-38.382 96.802-39.134 97.4l-119.464 119.466c-12.834 12.852-29.372 20.31-46.524 21.026-18.228 0.632-34.986-6.008-47.94-18.962-12.97-12.954-19.694-29.986-18.96-47.922zM512 738.134c18.824 0 34.134-15.308 34.134-34.134 0-9.42 7.628-17.066 17.066-17.066s17.066 7.646 17.066 17.066c0 31.71-21.828 58.214-51.2 65.844v2.424c0 9.42-7.628 17.066-17.066 17.066s-17.066-7.646-17.066-17.066v-2.424c-29.372-7.628-51.2-34.134-51.2-65.844 0-37.65 30.618-68.266 68.266-68.266 18.824 0 34.134-15.308 34.134-34.134s-15.308-34.134-34.134-34.134c-18.824 0-34.134 15.308-34.134 34.134 0 9.42-7.628 17.066-17.066 17.066s-17.066-7.646-17.066-17.066c0-31.71 21.828-58.214 51.2-65.844v-2.424c0-9.42 7.628-17.066 17.066-17.066s17.066 7.646 17.066 17.066v2.424c29.372 7.628 51.2 34.134 51.2 65.844 0 37.65-30.618 68.266-68.266 68.266-18.824 0-34.134 15.308-34.134 34.134 0 18.824 15.31 34.134 34.134 34.134zM392.534 38.4h-273.068c-9.438 0-17.066-7.646-17.066-17.066v-68.266c0-9.42 7.628-17.066 17.066-17.066s17.066 7.646 17.066 17.066v51.2h238.934v-51.2c0-9.42 7.628-17.066 17.066-17.066s17.066 7.646 17.066 17.066v68.266c0.002 9.42-7.626 17.066-17.064 17.066zM904.534 38.4h-273.068c-9.438 0-17.066-7.646-17.066-17.066v-68.266c0-9.42 7.628-17.066 17.066-17.066s17.066 7.646 17.066 17.066v51.2h238.934v-51.2c0-9.42 7.628-17.066 17.066-17.066s17.066 7.646 17.066 17.066v68.266c0.002 9.42-7.626 17.066-17.064 17.066zM512 891.734c-131.754 0-238.934-107.178-238.934-238.934s107.18-238.934 238.934-238.934 238.934 107.18 238.934 238.934-107.18 238.934-238.934 238.934zM512 448c-112.93 0-204.8 91.87-204.8 204.8s91.87 204.8 204.8 204.8 204.8-91.87 204.8-204.8c0-112.93-91.87-204.8-204.8-204.8zM955.734 652.8c-37.65 0-68.266-30.618-68.266-68.266v-135.116c0-9.42 7.628-17.066 17.066-17.066s17.066 7.646 17.066 17.066v135.116c0 18.824 15.308 34.134 34.134 34.134s34.134-15.308 34.134-34.134v-256c0-47.274-27.016-71.372-29.132-73.268l-136.536-136.534c-6.674-6.674-6.674-17.46 0-24.132 3.328-3.328 7.698-5 12.066-5 4.37 0 8.738 1.672 12.066 5l135.476 135.56c1.638 1.382 40.192 34.646 40.192 98.372v256c0 37.65-30.618 68.268-68.266 68.268zM819.2 652.8c0 169.386-137.814 307.2-307.2 307.2s-307.2-137.814-307.2-307.2 137.814-307.2 307.2-307.2 307.2 137.814 307.2 307.2zM512 379.734c-150.562 0-273.066 122.504-273.066 273.066s122.504 273.066 273.066 273.066 273.066-122.504 273.066-273.066-122.504-273.066-273.066-273.066z" />
<glyph unicode="&#xe919;" glyph-name="mortgage-insurance" d="M1013.898 331.781c-30.707 40.943-61.414 40.943-136.477 1.705l-18.766-11.565v298.166h68.238c6.823 0 13.648 3.413 15.354 10.236s0 13.648-5.118 18.766l-307.070 276.365c-52.884 46.061-129.652 46.061-180.831 0l-305.367-278.070c-5.118-5.118-6.823-11.941-5.118-18.766 1.705-5.118 8.53-10.236 15.354-10.236h69.945v-227.13c-40.221-9.854-79.119-31.507-104.063-47.442v35.737h-119.418v-443.549h119.416v51.179h221.774c34.12 0 69.945 3.413 104.063 6.823l221.774 34.12c8.53 0 17.059 1.705 23.884 3.413 20.471 3.413 39.238 13.648 56.297 29.002l257.599 203.010c20.475 17.059 23.886 47.766 8.532 68.238zM198.451 652.502l272.952 247.363c39.238 34.12 97.24 34.12 134.77 0l272.952-247.363h-40.943c-10.236 0-17.059-6.823-17.059-17.059v-336.648l-90.416-55.721c-20.062-11.703-64.699-15.212-106.62-15.348 7.373 15.034 3.698 33.282-11.091 56.291-27.295 39.238-73.355 63.12-122.829 63.12h-66.532c-35.825 0-69.945 10.236-97.24 30.707-18.766 13.648-40.943 20.471-68.238 18.766v238.831c0 10.236-6.823 17.059-17.059 17.059h-42.648zM85.858-29.882h-51.179v375.312h51.179v-375.312zM984.898 285.721l-259.306-201.302-1.705-1.705c-11.941-10.236-23.884-17.059-37.53-18.766h-1.705c-6.823-1.705-11.941-1.705-18.766-1.705l-225.186-34.12c-32.413-5.118-66.532-6.823-98.945-6.823h-221.776v281.483c25.939 18.374 73.791 47.010 117.527 55.993 2.221-0.522 4.612-0.496 7.009 0.304 15.538 2.071 29.176 2.237 40.939-0.61 6.809-2.057 13.127-5.19 18.77-9.626 32.413-23.884 73.355-37.53 117.711-37.53h66.532c39.238 0 73.355-17.059 97.24-51.179 4.584-6.875 6.849-13.742 7.331-18.548-0.094-0.768-0.26-1.425-0.508-1.923-3.413-6.823-20.471-13.648-49.473-13.648-4 0-7.471-1.315-10.226-3.413-2.475 0-4.794 0-6.835 0h-146.713c-52.884 0-85.299-25.589-85.299-68.238 0-10.236 6.823-17.059 17.059-17.059s17.059 6.823 17.059 17.059c0 8.53 0 34.12 51.179 34.12h145.006c4.822 0 11.195 0 20.471 0 0.57 0 1.114 0 1.705 0 1.705 0 5.118 0 8.53 0 80.181-1.705 155.241 0 194.479 20.471l146.713 90.416c71.65 35.825 78.473 27.295 92.122 6.823 3.415-5.12 3.415-15.356-3.409-20.473zM444.109 601.323c37.53 0 68.238 30.707 68.238 68.238s-30.707 68.238-68.238 68.238c-37.53 0-68.238-30.707-68.238-68.238s30.707-68.238 68.238-68.238zM444.109 703.681c18.766 0 34.12-15.354 34.12-34.12s-15.354-34.12-34.12-34.12c-18.766 0-34.12 15.354-34.12 34.12s15.354 34.12 34.12 34.12zM648.824 533.084c-37.53 0-68.238-30.707-68.238-68.238s30.707-68.238 68.238-68.238c37.53 0 68.238 30.707 68.238 68.238s-30.707 68.238-68.238 68.238zM648.824 430.726c-18.766 0-34.12 15.354-34.12 34.12s15.354 34.12 34.12 34.12 34.12-15.354 34.12-34.12c0-18.766-15.354-34.12-34.12-34.12zM392.931 396.608c5.118 0 8.53 1.705 11.941 5.118l307.072 307.072c6.823 6.823 6.823 17.059 0 23.884s-17.059 6.823-23.884 0l-307.072-307.072c-6.823-6.823-6.823-17.059 0-23.884 3.413-3.413 6.825-5.118 11.943-5.118z" />
<glyph unicode="&#xe91a;" glyph-name="next" d="M10.41-53.598c13.856-13.856 36.296-13.856 50.154 0l892.499 892.497v-481.883c0-19.602 15.866-35.47 35.47-35.47 19.602 0 35.47 15.866 35.47 35.47v567.507c0 19.602-15.866 35.47-35.47 35.47h-567.507c-19.602 0-35.47-15.866-35.47-35.47s15.866-35.47 35.47-35.47h481.859l-892.475-892.497c-13.88-13.858-13.88-36.298 0-50.154z" />
<glyph unicode="&#xe91b;" glyph-name="phone" d="M1013.009 183.424c-38.118 72.059-170.486 150.194-176.295 153.61-24.26 13.82-49.375 18.129-70.636 12.263-16.022-4.442-29.082-14.579-37.89-29.348-19.363-23.159-43.395-50.229-49.204-54.424-38.649-26.178-70.503-27.032-103.343-2.107-1.025 0.797-2.183 1.652-3.113 2.411-4.309 3.474-8.656 7.27-13.022 11.637l-218.058 218.039c-38.801 38.82-42.37 74.565-11.997 119.422 4.252 5.885 31.322 29.898 54.5 49.28 14.769 8.789 24.906 21.83 29.329 37.852 5.923 21.318 1.557 46.413-12.377 70.864-3.284 5.619-81.437 137.987-153.478 176.086-36.561 19.344-80.792 12.719-110.044-16.534l-48.16-48.16c-76.179-76.179-103.78-162.532-82.007-256.631 18.148-78.438 71.034-161.906 157.217-248.089l279.145-279.145c86.183-86.183 169.651-139.069 248.089-157.217 20.786-4.803 41.174-7.214 61.182-7.214 70.56 0.019 136.089 29.86 195.449 89.239l48.16 48.141c29.253 29.272 35.897 73.483 16.553 110.025zM969.614 100.241l-48.16-48.141c-67.219-67.257-139.582-90.739-221.247-71.889-71.414 16.515-148.713 66.004-229.789 147.080l-279.145 279.145c-81.076 81.076-130.565 158.394-147.080 229.789-18.888 81.627 4.632 153.99 71.87 221.228l48.16 48.16c10.763 10.744 24.925 16.363 39.295 16.363 8.865 0 17.825-2.126 26.121-6.53 62.53-33.087 137.741-160.463 138.386-161.545 8.523-14.959 11.769-30.544 8.675-41.706-1.898-6.834-6.132-12.016-12.965-15.851l-2.866-1.974c-16.192-13.516-54.709-46.186-62.815-58.126-12.51-18.47-20.597-36.618-24.317-54.386-15.908 29.082-29.253 63.783-33.315 102.774-1.082 10.403-10.327 17.73-20.843 16.933-10.422-1.101-18.015-10.422-16.933-20.862 13.706-131.989 116.347-217.906 120.713-221.494 0.437-0.361 0.968-0.494 1.443-0.816l204.542-204.542c0.569-0.759 0.873-1.652 1.576-2.335 3.588-3.55 89.296-86.695 220.184-100.287 0.664-0.057 1.329-0.095 1.974-0.095 9.605 0 17.844 7.27 18.869 17.009 1.082 10.441-6.492 19.761-16.933 20.862-35.365 3.664-67.219 13.25-94.592 24.811 13.098 4.442 26.367 11.105 39.826 20.217 11.921 8.068 44.61 46.603 58.107 62.796l1.974 2.866c3.835 6.815 9.017 11.067 15.851 12.965 11.162 3.113 26.747-0.152 41.497-8.542 1.291-0.759 128.667-75.97 161.754-138.5 11.523-21.679 7.574-47.97-9.814-65.377zM561.043 486.792c2.316-0.968 4.784-1.462 7.252-1.462h227.796c10.479 0 18.983 8.485 18.983 18.983s-8.504 18.983-18.983 18.983h-181.971l290.307 290.307c7.422 7.422 7.422 19.42 0 26.842s-19.42 7.422-26.842 0l-290.307-290.307v181.971c0 10.498-8.504 18.983-18.983 18.983s-18.983-8.485-18.983-18.983v-227.796c0-2.468 0.513-4.936 1.462-7.252 1.936-4.651 5.638-8.353 10.27-10.27z" />
<glyph unicode="&#xe91c;" glyph-name="play-button" d="M1024 481.758h-478.242v478.242h-67.516v-478.242h-478.242v-67.516h478.242v-478.242h67.516v478.242h478.242z" />
<glyph unicode="&#xe91d;" glyph-name="play-of-right-arrow-triangle" d="M89.119-64c-4.093 0-8.183 1.055-11.85 3.176-7.333 4.233-11.85 12.058-11.85 20.524v976.601c0 8.465 4.517 16.291 11.85 20.524 7.333 4.235 16.367 4.235 23.699 0l845.763-488.3c7.333-4.233 11.85-12.058 11.85-20.524s-4.517-16.291-11.85-20.524l-845.763-488.302c-3.664-2.121-7.757-3.176-11.85-3.176zM112.818 895.254v-894.507l774.665 447.257-774.665 447.25z" />
<glyph unicode="&#xe91e;" glyph-name="profits" d="M230.559-63.837h-154.070v276.238h154.070v-276.238zM108.483-31.842h90.081v212.248h-90.081v-212.248zM428.903-63.837h-154.070v415.811h154.070v-415.811zM306.828-31.842h90.081v351.821h-90.081v-351.821zM627.279-63.837h-154.070v572.849h154.070v-572.849zM505.204-31.842h90.081v508.859h-90.081v-508.859zM825.624-63.837h-154.070v729.855h154.070v-729.855zM703.549-31.842h90.081v665.865h-90.081v-665.865zM1024-63.837h-154.070v834.558h154.070v-834.558zM901.925-31.842h90.081v770.568h-90.081v-770.568zM0 320.284l728.079 579.866-31.278 39.8 137.149 19.886-51.394-129.007-31.278 39.802-724.311-581.44c0 0-25.895 30.714-26.967 31.092z" />
<glyph unicode="&#xe91f;" glyph-name="profits1" d="M1006.874 672.971c-5.683 3.818-12.876 4.558-19.222 2.019l-966.738-390.809c-7.773-3.143-12.858-10.685-12.858-19.074v-308.536c0-11.36 9.199-20.571 20.571-20.571h966.738c11.366 0 20.571 9.211 20.571 20.571v699.345c-0.006 6.837-3.398 13.225-9.063 17.055zM974.794-22.857h-164.553v411.919h-41.137v-411.919h-143.982v308.536h-41.137v-308.536h-534.791v274.094l925.601 374.175v-648.269zM107.226 523.874c2.753 0 5.541 0.562 8.234 1.74l717.14 314.503-36.697-82.428c-4.641-10.377 0.041-22.537 10.407-27.154 2.729-1.208 5.565-1.788 8.353-1.788 7.873 0.012 15.403 4.552 18.801 12.213l58.577 131.539c2.232 4.984 2.368 10.644 0.42 15.735s-5.843 9.199-10.827 11.419l-131.527 58.565c-10.425 4.612-22.56-0.041-27.154-10.425-4.641-10.377 0.041-22.537 10.407-27.154l89.52-39.858-723.93-317.486c-10.407-4.57-15.143-16.7-10.585-27.107 3.392-7.714 10.922-12.313 18.861-12.313z" />
<glyph unicode="&#xe920;" glyph-name="protect-support" d="M877.902 703.52c-6.194 6.33-16.346 6.438-22.674 0.242-6.328-6.194-6.436-16.346-0.242-22.672 83.364-85.16 131.372-196.172 136.49-314.552-20.13 5.192-50.086 11.984-69.020 11.984-18.618 0-44.072-4.784-54.154-6.844-6.208-1.268-11.45-2.454-15.918-3.566-4.706 126.1-39.398 244.518-98.652 335.55-25.372 38.976-54.050 71.034-85.052 95.628 48.344-16.674 93.964-41.198 135.544-73.162 7.482-5.75 18.612-3.64 23.494 4.414 4.178 6.894 2.434 16.1-3.95 21.008-76.708 58.968-166.288 94.24-261.528 103.414v54.798c-0.002 27.702-22.538 50.238-50.24 50.238s-50.238-22.536-50.238-50.238v-54.8c-117.786-11.396-227.038-62.774-311.8-147.538-96.706-96.704-149.962-225.278-149.962-362.038 0-10.542 10.482-18.382 20.604-15.366 15.372 4.57 59.882 16.436 80.94 16.436 22.822 0 64.728-9.182 75.026-13.15 5.1-4.462 12.698-5.16 18.566-1.8 27.256 15.756 76.464 32.052 111.636 32.052 30.872 0 78.878-23.204 94.772-32.142 4.738-2.668 10.602-2.698 15.412-0.178 14.16 7.38 29.244 15.226 44.806 21.344v-114.086c0-8.856 7.178-16.034 16.034-16.034s16.034 7.176 16.034 16.034v123.432c6.040 1.042 12.104 1.628 18.172 1.628s12.132-0.588 18.172-1.628v-307.282c0-27.702 22.536-50.238 50.238-50.238s50.238 22.536 50.238 50.238c0 10.020 8.152 18.172 18.172 18.172s18.172-8.152 18.172-18.172c0-47.742-38.84-86.58-86.58-86.58s-86.58 38.84-86.58 86.58v115.44c0 8.856-7.178 16.034-16.034 16.034s-16.034-7.176-16.034-16.034v-115.44c0-65.422 53.224-118.648 118.648-118.648s118.648 53.224 118.648 118.648c0 27.702-22.536 50.238-50.238 50.238s-50.238-22.536-50.238-50.238c0-10.020-8.152-18.172-18.172-18.172s-18.172 8.152-18.172 18.172v297.934c15.586-6.132 30.712-13.996 44.942-21.414 4.756-2.476 10.61-2.372 15.28 0.252 15.86 8.938 63.802 32.14 94.766 32.14 35.17 0 84.38-16.296 111.636-32.052 5.84-3.416 13.48-2.62 18.564 1.798 10.3 3.968 52.206 13.152 75.028 13.152 21.026 0 65.558-11.866 80.944-16.438 10.116-3 20.602 4.822 20.602 15.368-0.004 134.702-51.89 261.89-146.102 358.134zM493.828 909.762c0 10.020 8.152 18.172 18.172 18.172s18.172-8.152 18.172-18.172v-52.71c-6.040 0.208-12.096 0.334-18.172 0.334s-12.13-0.144-18.172-0.352v52.728zM171.618 368.114c-4.468 1.114-9.712 2.3-15.92 3.568-10.080 2.056-35.534 6.84-54.152 6.84-18.934 0-48.89-6.792-69.018-11.98 8.736 200.372 140.93 369.234 322.212 432.286-30.78-24.536-59.258-56.432-84.47-95.166-59.256-91.032-93.948-209.45-98.652-335.548zM393.61 371.286c-22.876 10.582-58.138 24.338-86.836 24.338-32.314 0-72.312-11.046-102.946-24.154 5.132 118.64 37.896 229.558 93.316 314.698 46.44 71.342 104.194 117.168 166.188 132.968-14.844-26.472-27.766-66.79-38.97-121.412-18.212-88.798-29.012-203.882-30.752-326.438zM512 395.624c-31.234 0-60-11.148-86.316-23.958 1.744 120.276 12.312 232.92 30.094 319.616 22.552 109.958 48.23 134.038 56.222 134.038s33.67-24.080 56.224-134.038c17.78-86.696 28.348-199.338 30.094-319.614-26.276 12.79-55.060 23.956-86.318 23.956zM717.228 395.624c-28.7 0-63.96-13.756-86.838-24.338-1.74 122.56-12.54 237.642-30.752 326.438-11.202 54.62-24.122 94.94-38.97 121.412 61.996-15.802 119.748-61.626 166.188-132.968 55.42-85.14 88.184-196.056 93.316-314.698-30.632 13.108-70.63 24.154-102.944 24.154z" />
<glyph unicode="&#xe921;" glyph-name="quote-hand-drawn-symbol" d="M322.212 897.012c-141.148 64.064-353.681-56.908-318.3-225.301 19.863-94.525 106.319-162.924 198.673-179.921 79.927-14.72 153.473 20.314 207.289 75.522-11.129-78.898-44.069-157.988-76.275-223.175-53.971-109.238-131.378-225.342-234.275-294.136-38.454-25.69-2.393-88.193 36.391-62.273 226.251 151.221 560.137 739.698 186.497 909.284zM396.502 668.143c-45.474-78.279-120.793-124.372-211.59-98.097-77.585 22.448-134.973 107.664-99.311 184.188 67.673 145.228 262.267 93.224 311.363-35.46 0.995-16.043 1.266-32.109 1.352-48.201-0.594-0.838-1.266-1.491-1.815-2.429zM855.905 897.012c-141.148 64.064-353.674-56.908-318.3-225.301 19.852-94.525 106.323-162.924 198.68-179.921 79.927-14.72 153.473 20.314 207.282 75.522-11.134-78.898-44.051-157.988-76.273-223.175-53.971-109.238-131.367-225.342-234.281-294.136-38.454-25.69-2.382-88.193 36.396-62.273 226.258 151.221 560.155 739.698 186.497 909.284zM930.211 668.143c-45.474-78.279-120.8-124.372-211.595-98.097-77.58 22.448-134.973 107.664-99.306 184.188 64.677 138.812 245.217 97.375 303.94-18.898 5.676-21.523 7.584-43.345 7.851-66.007-0.287-0.423-0.633-0.722-0.89-1.186z" />
<glyph unicode="&#xe922;" glyph-name="riding-car" d="M285.473 493.451h-148.148c-11.716 0-21.212 9.496-21.212 21.212s9.496 21.212 21.212 21.212h148.148c11.716 0 21.212-9.496 21.212-21.212s-9.496-21.212-21.212-21.212zM222.301 407.214h84.25c11.716 0 21.212 9.496 21.212 21.212s-9.496 21.212-21.212 21.212h-84.25c-11.716 0-21.212-9.496-21.212-21.212s9.498-21.212 21.212-21.212zM114.595 428.426c0 11.716-9.496 21.212-21.212 21.212h-50.591c-11.716 0-21.212-9.496-21.212-21.212s9.496-21.212 21.212-21.212h50.591c11.716 0 21.212 9.498 21.212 21.212zM393.349 600.895c0 11.716-9.496 21.212-21.212 21.212h-350.924c-11.716 0-21.212-9.496-21.212-21.212s9.496-21.212 21.212-21.212h350.924c11.714 0 21.212 9.498 21.212 21.212zM1023.861 338.343l-0.087-19.518c-0.059-12.496-0.127-26.716-0.127-44.046 0-34.305-26.315-63.799-62.609-73.198-8.869-66.128-65.659-117.289-134.176-117.289-74.646 0-135.376 60.73-135.376 135.378 0 74.646 60.73 135.376 135.376 135.376 65.633 0 120.506-46.95 132.805-109.023 12.838 6.095 21.556 16.93 21.556 28.757 0 17.41 0.066 31.693 0.127 44.246l0.087 19.513c0.115 25.186 0.273 59.679-0.092 75.871-0.115 5.145-0.259 9.911-0.464 14.356h-523.539c-57.593 0-78.78 51.355-85.742 68.23-4.469 10.83 0.688 23.232 11.518 27.698 10.846 4.464 23.234-0.691 27.698-11.518 12.143-29.431 26.058-41.986 46.525-41.986h516.014c-8.89 20.998-27.974 37.904-69.901 75.051-8.438 7.474-17.703 15.683-27.875 24.814-7.325 6.571-14.684 13.602-21.799 20.399-10.55 10.078-21.457 20.5-32.935 30.114-9.92 8.31-19.312 16.218-28.243 23.739-113.113 95.24-147.25 123.983-246.822 123.983h-390.537c-24.349 0-44.923-15.523-44.923-33.897v-50.64c0-11.716-9.496-21.212-21.212-21.212s-21.212 9.496-21.212 21.212v50.638c0 42.083 39.184 76.321 87.347 76.321h390.535c115.052 0 158.372-36.475 274.146-133.952 8.904-7.5 18.268-15.384 28.16-23.668 12.539-10.505 23.958-21.412 35-31.962 7.196-6.875 13.991-13.366 20.823-19.494 10.104-9.067 19.301-17.217 27.677-24.637 72.963-64.645 90.3-80.003 92.174-162.626 0.379-16.772 0.229-50.183 0.104-77.028zM919.818 219.378c-0.007 0.283-0.007 0.563-0.002 0.841-0.299 51.001-41.882 92.4-92.952 92.4-51.253 0-92.952-41.698-92.952-92.952 0-51.256 41.696-92.954 92.952-92.954 51.157 0 92.794 41.543 92.954 92.664zM265.074 240.882h-0.073c-11.716 0-21.174-9.496-21.174-21.212s9.534-21.212 21.25-21.212 21.212 9.496 21.212 21.212-9.498 21.212-21.215 21.212zM826.899 240.882h-0.082c-11.716 0-21.17-9.496-21.17-21.212s9.538-21.212 21.255-21.212 21.212 9.496 21.212 21.212-9.498 21.212-21.215 21.212zM646.926 219.67c0-11.716-9.496-21.212-21.212-21.212h-226.958c-10.212-64.605-66.288-114.166-133.719-114.166-68.473 0-125.234 51.095-134.155 117.164-24.684 6.208-45.194 21.686-55.753 42.889-4.799 9.635-7.231 19.873-7.231 30.435v62.847c0 11.716 9.496 21.212 21.212 21.212s21.212-9.496 21.212-21.212v-62.847c0-3.936 0.936-7.811 2.784-11.521 3.698-7.424 10.535-13.514 19.091-17.455 12.211 62.182 67.134 109.243 132.842 109.243 67.431 0 123.507-49.561 133.719-114.164h226.958c11.714 0 21.21-9.498 21.21-21.212zM357.993 219.67c0 51.253-41.698 92.952-92.954 92.952-51.168 0-92.813-41.557-92.952-92.695 0-0.097 0-0.191 0-0.285 0.016-51.244 41.705-92.928 92.952-92.928 51.253 0 92.954 41.701 92.954 92.956z" />
<glyph unicode="&#xe923;" glyph-name="right-arrow" d="M1024 456.383c0 28.475-10.889 55.218-31.026 75.356l-295.295 295.432c-22.256 22.256-58.339 22.256-80.55 0-22.279-22.256-22.233-58.499 0-80.777l240.874-240.783h-801.418c-31.482-0.023-56.585-25.832-56.585-57.337 0-0.068 0-0.569 0-0.638 0-31.482 25.103-57.474 56.585-57.474h801.441l-240.829-240.646c-22.279-22.279-22.279-58.408 0-80.663 22.256-22.301 58.339-22.279 80.595 0.023l295.181 295.455c20.16 20.092 31.026 46.904 31.026 75.379 0 2.802 0 13.873 0 16.675z" />
<glyph unicode="&#xe924;" glyph-name="save-nature" d="M604.438 819.223v51.224c0 49.379-40.171 89.553-89.548 89.553h-5.769c-49.376 0-89.548-40.174-89.548-89.553v-51.218c-177.267-41.866-309.58-201.416-309.58-391.288v-381.018c0-37.234 42.398-65.037 129.616-85 73.040-16.718 169.776-25.923 272.393-25.923 102.614 0 199.35 9.205 272.39 25.923 87.218 19.963 129.613 47.766 129.613 85v381.018c0.003 189.873-132.297 349.419-309.567 391.283zM468.623 870.447c0 22.334 18.167 40.504 40.498 40.504h5.769c22.331 0 40.498-18.17 40.498-40.504v-42.826c-14.249 1.534-28.74 2.327-43.392 2.327s-29.124-0.788-43.373-2.324v42.823zM864.958 105.384c-32.299 16.061-80.474 28.879-144.3 38.348-13.404 1.976-25.868-7.265-27.86-20.661-1.986-13.399 7.262-25.871 20.658-27.857 108.77-16.137 145.096-39.534 150.987-48.191-3.412-4.485-21.83-22.871-102.363-39.782-68.162-14.312-156.971-22.195-250.075-22.195-93.107 0-181.918 7.883-250.078 22.195-80.539 16.911-98.954 35.294-102.366 39.782 5.891 8.657 42.221 32.054 150.99 48.191 13.399 1.986 22.647 14.461 20.661 27.857-1.986 13.399-14.467 22.653-27.857 20.661-63.83-9.469-112.007-22.29-144.306-38.351v322.559c0 194.62 158.337 352.956 352.959 352.956 194.62 0 352.953-158.337 352.953-352.956v-322.557zM724.78 591.631c-11.884-1.079-23.822-2.804-35.482-5.123-87.793-17.486-163.522-68.113-213.239-142.554-0.095-0.142-0.188-0.283-0.283-0.422-50.88 44.493-118.492 64.903-186.6 55.137-8.148-1.164-16.388-2.796-24.495-4.85-10.172-2.578-17.579-11.344-18.421-21.802-1.384-17.2-0.834-34.672 1.64-51.932 13.529-94.466 82.019-169.885 173.103-193.094 1.087-11.543 2.777-23.094 5.074-34.621 4.041-20.293 9.943-40.185 17.587-59.295l-26.544-45.21c-6.859-11.679-2.948-26.707 8.734-33.566 3.899-2.289 8.175-3.379 12.393-3.379 8.412 0 16.603 4.333 21.173 12.112l26.547 45.213c7.657 0.986 15.276 2.234 22.767 3.728 87.798 17.486 163.533 68.113 213.25 142.554s67.467 163.789 49.979 251.588c-4.88 24.489-12.467 48.398-22.555 71.070-4.27 9.584-14.156 15.404-24.628 14.448zM420.11 278.353c-65.364 21.876-113.625 78.653-123.653 148.685-1.087 7.594-1.706 15.233-1.853 22.852 0.51 0.076 1.019 0.153 1.529 0.226 57.208 8.199 113.977-10.548 154.895-50.474-17.99-38.316-28.416-79.362-30.917-121.288zM681.194 281.762c-38.613-57.816-95.611-98.802-162.024-116.966l105.936 180.428c6.859 11.679 2.948 26.707-8.731 33.566-3.902 2.289-8.175 3.379-12.393 3.379-8.415 0-16.606-4.333-21.173-12.112l-105.906-180.373c-0.995 4.066-1.902 8.156-2.722 12.265-2.967 14.903-4.747 29.852-5.36 44.749 0.008 0.428 0.003 0.858-0.011 1.292-1.782 50.068 9.791 99.99 33.473 144.371 0.202 0.376 0.392 0.758 0.572 1.142 4.273 7.9 8.941 15.649 13.99 23.211 42.439 63.549 107.086 106.764 182.025 121.689 4.134 0.823 8.306 1.556 12.502 2.202 5.306-14.292 9.491-29.056 12.486-44.076 14.927-74.945-0.226-151.219-42.665-214.765zM264.253 597.607c24.639 30.879 53.567 57.949 85.983 80.455 11.123 7.723 26.408 4.968 34.13-6.158 7.725-11.126 4.968-26.405-6.158-34.13-28.503-19.791-53.946-43.599-75.615-70.759-4.842-6.068-11.982-9.229-19.186-9.229-5.363 0-10.761 1.752-15.279 5.355-10.586 8.447-12.322 23.879-3.875 34.468z" />
<glyph unicode="&#xe925;" glyph-name="search" d="M999.602-31.269l-287.271 298.755c73.273 73.485 118.667 174.791 118.667 286.517 0 223.878-182.118 405.996-405.996 405.996s-405.996-182.118-405.996-405.996 182.118-405.996 405.996-405.996c98.27 0 188.46 35.128 258.755 93.418l287.967-299.49c3.789-3.963 8.855-5.935 13.939-5.935 4.833 0 9.647 1.798 13.398 5.394 7.695 7.405 7.927 19.642 0.541 27.337zM425.001 186.674c-202.553 0-367.33 164.776-367.33 367.33s164.776 367.33 367.33 367.33 367.33-164.776 367.33-367.33-164.796-367.33-367.33-367.33z" />
<glyph unicode="&#xe926;" glyph-name="send" d="M606.716 37.12c-50.347 0-121.6 35.413-177.92 204.8l-30.721 92.16-92.16 30.72c-168.96 56.32-204.373 127.573-204.373 177.92 0 49.92 35.413 121.6 204.373 178.347l362.241 120.747c90.453 30.293 165.973 21.333 212.48-24.747s55.467-122.027 25.173-212.48l-120.747-362.24c-56.747-169.813-128-205.227-178.347-205.227zM325.968 660.053c-118.613-39.68-160.853-86.613-160.853-117.333s42.24-77.653 160.853-116.906l107.521-35.84c9.387-2.987 17.067-10.667 20.053-20.053l35.84-107.52c39.253-118.613 86.613-160.853 117.333-160.853s77.653 42.24 117.333 160.853l120.747 362.24c21.76 65.707 17.92 119.467-9.813 147.2s-81.493 31.147-146.773 9.387l-362.241-121.173zM431.36 345.6c-8.105 0-16.211 2.987-22.611 9.387-12.373 12.373-12.373 32.853 0 45.227l152.745 153.173c12.373 12.373 32.853 12.373 45.227 0s12.373-32.853 0-45.227l-152.747-153.173c-5.973-6.4-14.507-9.387-22.613-9.387z" />
<glyph unicode="&#xe927;" glyph-name="share" d="M816.24 320.577c-67.866 0-127.632-35.342-161.862-88.586l-269.347 141.521c9.667 22.92 15.016 48.091 15.016 74.486s-5.349 51.566-15.016 74.486l269.347 141.521c34.232-53.244 93.997-88.586 161.862-88.586 106.029 0 192.29 86.26 192.29 192.287 0 106.034-86.26 192.294-192.29 192.294-106.027 0-192.287-86.26-192.287-192.29 0-26.397 5.349-51.566 15.016-74.486l-269.347-141.521c-34.232 53.244-93.997 88.586-161.862 88.586-106.027 0-192.287-86.26-192.287-192.29s86.26-192.29 192.287-192.29c67.866 0 127.632 35.342 161.862 88.586l269.347-141.521c-9.667-22.92-15.016-48.091-15.016-74.486 0-106.029 86.26-192.29 192.287-192.29 106.029 0 192.29 86.26 192.29 192.29 0 106.027-86.26 192.287-192.29 192.287zM816.24 926.968c87.815 0 159.257-71.442 159.257-159.257 0-87.813-71.442-159.255-159.257-159.255s-159.255 71.442-159.255 159.255c-0.002 87.815 71.44 159.257 159.255 159.257zM207.757 288.743c-87.813 0-159.255 71.442-159.255 159.257s71.442 159.257 159.255 159.257 159.255-71.442 159.255-159.257-71.442-159.257-159.255-159.257zM816.24-30.968c-87.815 0-159.255 71.442-159.255 159.257 0 87.813 71.44 159.255 159.255 159.255s159.257-71.442 159.257-159.255c0-87.815-71.442-159.257-159.257-159.257z" />
<glyph unicode="&#xe928;" glyph-name="shield" d="M512 960c-157.328-165.328-418.672-128-418.672-128s0-184 0-448 418.672-448 418.672-448 418.672 184 418.672 448 0 448 0 448-261.344-37.328-418.672 128zM479.552 197.744v58.128c-41.024 1.84-80.8 12.864-104.080 26.32l18.4 71.632c25.728-14.064 61.808-26.912 101.632-26.912 34.896 0 58.768 13.456 58.768 37.936 0 23.28-19.584 37.984-64.896 53.28-65.504 22.032-110.208 52.64-110.208 112 0 53.888 37.984 96.112 103.488 108.96v58.176h59.968v-53.888c41.024-1.84 68.592-10.368 88.784-20.192l-17.744-69.184c-15.904 6.736-44.064 20.832-88.176 20.832-39.776 0-52.64-17.152-52.64-34.288 0-20.192 21.44-33.056 73.472-52.64 72.832-25.728 102.24-59.36 102.24-114.496 0-54.48-38.576-100.992-108.96-113.248v-62.4l-60.048-0.016z" />
<glyph unicode="&#xe929;" glyph-name="stats" d="M912.696-64h-801.391c-61.472 0-111.304 49.833-111.304 111.304v0 801.391c0 61.472 49.833 111.304 111.304 111.304v0h801.391c61.472 0 111.304-49.833 111.304-111.304v0-801.391c0-61.472-49.833-111.304-111.304-111.304v0zM111.304 915.478c-36.883 0-66.783-29.9-66.783-66.783v0-801.391c0-36.883 29.9-66.783 66.783-66.783v0h801.391c36.883 0 66.783 29.9 66.783 66.783v0 801.391c0 36.883-29.9 66.783-66.783 66.783v0zM422.957 114.087c-12.294 0-22.261 9.967-22.261 22.261v0 378.435c0 12.294 9.967 22.261 22.261 22.261s22.261-9.967 22.261-22.261v0-378.435c0-12.294-9.967-22.261-22.261-22.261v0zM790.261 114.087c-12.294 0-22.261 9.967-22.261 22.261v0 467.478c0 12.294 9.967 22.261 22.261 22.261s22.261-9.967 22.261-22.261v0-467.478c0-12.294-9.967-22.261-22.261-22.261v0zM601.043 114.087c-12.294 0-22.261 9.967-22.261 22.261v0 322.783c0 12.294 9.967 22.261 22.261 22.261s22.261-9.967 22.261-22.261v0-322.783c0-12.294-9.967-22.261-22.261-22.261v0zM233.739 114.087c-12.294 0-22.261 9.967-22.261 22.261v0 256c0 12.294 9.967 22.261 22.261 22.261s22.261-9.967 22.261-22.261v0-256c0-12.294-9.967-22.261-22.261-22.261v0zM233.739 492.522c-12.265 0.038-22.193 9.99-22.193 22.261 0 6.879 3.12 13.028 8.022 17.112l0.036 0.029 189.217 155.826c3.832 3.212 8.815 5.163 14.255 5.163 2.879 0 5.631-0.547 8.157-1.542l-0.151 0.052 165.621-62.108 178.866 158.163c3.784 3.067 8.657 4.924 13.964 4.924 12.294 0 22.261-9.967 22.261-22.261 0-6.305-2.621-11.997-6.833-16.048l-0.007-0.007-189.217-166.957c-3.888-3.399-9.011-5.472-14.617-5.472-2.743 0-5.371 0.496-7.797 1.404l0.154-0.050-166.289 62.219-179.311-147.59c-3.807-3.172-8.744-5.103-14.132-5.12h-0.004z" />
<glyph unicode="&#xe92a;" glyph-name="shield1" d="M436.8-30.4c13.6 0 24.6 11 24.6 24.6s-11 24.6-24.6 24.6c-200.8 0-364 163.2-364 364v343l364 151.8 364-151.8v-143c0-13.6 11-24.6 24.6-24.6s24.6 11 24.6 24.6v159.2c0 9.8-6 18.8-15 22.6l-388.8 162.2c-6 2.6-12.8 2.6-18.8 0l-388.6-162c-9.2-3.8-15-12.8-15-22.6v-359.4c0-227.8 185.2-413.2 413-413.2zM706.2 389c-70.4 0-127.8-57.2-127.8-127.8s57.2-127.8 127.8-127.8c70.4 0 127.8 57.2 127.8 127.8s-57.4 127.8-127.8 127.8zM706.2 182.6c-43.4 0-78.8 35.4-78.8 78.8s35.4 78.8 78.8 78.8c43.4 0 78.8-35.4 78.8-78.8s-35.4-78.8-78.8-78.8zM822.4 471.4c-15.8 8.8-32.4 15.6-49.6 20.6v21c0 23.4-19 42.2-42.2 42.2h-48.6c-23.4 0-42.2-19-42.2-42.2v-21c-17.2-5-33.8-11.8-49.6-20.6l-14.8 14.8c-8 8-18.6 12.4-29.8 12.4s-22-4.4-29.8-12.4l-34.6-34.2c-8-8-12.4-18.6-12.4-29.8 0-11.4 4.4-22 12.4-29.8l14.8-14.8c-8.8-15.8-15.6-32.4-20.6-49.6h-21c-23.4 0-42.2-19-42.2-42.2v-48.4c0-23.4 19-42.2 42.2-42.2h21c5-17.2 11.8-33.8 20.6-49.6l-14.8-14.8c-16.4-16.4-16.4-43.4 0-59.8l34.2-34.2c8-8 18.6-12.4 29.8-12.4s22 4.4 29.8 12.4l14.8 14.8c15.8-8.8 32.4-15.6 49.6-20.6v-21c0-23.4 19-42.2 42.2-42.2h48.4c23.4 0 42.2 19 42.2 42.2v21c17.2 5 33.8 11.8 49.6 20.6l14.8-14.8c8-8 18.6-12.4 29.8-12.4s22 4.4 29.8 12.4l34.2 34.2c8 8 12.4 18.6 12.4 30 0 11.2-4.4 22-12.4 29.8l-14.8 14.8c8.8 15.8 15.6 32.4 20.6 49.6h21.8c23.4 0 42.2 19 42.2 42.2v48.4c0 23.4-19 42.2-42.2 42.2h-21c-5 17.2-11.8 33.8-20.6 49.6l14.8 14.8c8 8 12.4 18.6 12.4 30 0 11.2-4.4 22-12.4 29.8l-34.2 34.2c-8 8-18.6 12.4-29.8 12.4s-22-4.4-30-12.4l-14.8-15zM867.2 446.8l24.8-24.8-23.8-23.8c-8.2-8.2-9.6-21.2-3-31 14-21 23.6-44.2 28.6-69 2.2-11.4 12.4-19.8 24-19.8h33.6v-35h-33.6c-11.6 0-21.8-8.2-24-19.8-4.8-24.8-14.4-48-28.6-69-6.6-9.8-5.2-22.6 3-31l23.8-23.8-24.8-24.8-23.8 23.8c-8.2 8.2-21.2 9.6-31 3-21-14-44.2-23.6-69-28.6-11.4-2.2-19.8-12.4-19.8-24v-33.6h-35v33.6c0 11.8-8.2 21.8-19.8 24-24.8 4.8-48 14.4-69 28.6-9.8 6.6-22.6 5.2-31-3l-23.8-23.8-24.8 24.8 23.8 23.8c8.2 8.2 9.6 21.2 3 31-14 21-23.6 44.2-28.6 69-2.2 11.4-12.4 19.8-24 19.8h-33.6v35h33.6c11.6 0 21.8 8.2 24 19.8 4.8 24.8 14.4 48 28.6 69 6.6 9.8 5.2 22.6-3 31l-23.4 23.8 24.8 24.8 23.8-23.8c8.2-8.2 21.2-9.6 31-3 21 14 44.2 23.6 69 28.6 11.4 2.2 19.8 12.4 19.8 24v33.6h35v-33.6c0-11.6 8.2-21.8 19.8-24 24.8-5 48-14.6 69-28.6 9.8-6.6 22.6-5.2 31 3l23.4 23.8z" />
<glyph unicode="&#xe92b;" glyph-name="stand-up" d="M164.33 238.291l-29.573-59.147c-4.443-8.887-6.757-18.686-6.757-28.622v-43.856c0-23.564 19.103-42.667 42.667-42.667h42.667c23.564 0 42.667 19.103 42.667 42.667v43.856c0 9.936-2.313 19.735-6.757 28.622l-29.573 59.147c-8.824-2.364-18.1-3.624-27.67-3.624s-18.846 1.26-27.67 3.624v0zM126.178 257.392c-24.869 19.528-40.844 49.869-40.844 83.942 0 58.91 47.756 106.667 106.667 106.667s106.667-47.756 106.667-106.667c0-34.072-15.975-64.413-40.844-83.942l29.583-59.167c7.406-14.811 11.261-31.143 11.261-47.703v-43.856c0-47.128-38.205-85.333-85.333-85.333h-42.667c-47.128 0-85.333 38.205-85.333 85.333v43.856c0 16.559 3.855 32.892 11.261 47.703l29.583 59.167zM804.33 238.291l-29.573-59.147c-4.443-8.887-6.757-18.686-6.757-28.622v-43.856c0-23.564 19.103-42.667 42.667-42.667h42.667c23.564 0 42.667 19.103 42.667 42.667v43.856c0 9.936-2.313 19.735-6.757 28.622l-29.573 59.147c-8.824-2.364-18.1-3.624-27.67-3.624s-18.846 1.26-27.67 3.624v0zM766.178 257.392c-24.869 19.528-40.844 49.869-40.844 83.942 0 58.91 47.756 106.667 106.667 106.667s106.667-47.756 106.667-106.667c0-34.072-15.975-64.413-40.844-83.942l29.583-59.167c7.406-14.811 11.261-31.143 11.261-47.703v-43.856c0-47.128-38.205-85.333-85.333-85.333h-42.667c-47.128 0-85.333 38.205-85.333 85.333v43.856c0 16.559 3.855 32.892 11.261 47.703l29.583 59.167zM465.267 243.466c-0.649-0.892-1.377-1.746-2.182-2.551l-60.34-60.34c-12.002-12.002-18.745-28.281-18.745-45.255v-28.654c0-23.564 19.103-42.667 42.667-42.667h170.667c23.564 0 42.667 19.103 42.667 42.667v28.654c0 16.974-6.743 33.253-18.745 45.255l-60.34 60.34c-0.805 0.805-1.532 1.659-2.182 2.551-14.477-5.68-30.241-8.799-46.733-8.799s-32.256 3.119-46.733 8.799zM427.953 266.123c-26.932 23.466-43.953 58.017-43.953 96.543 0 70.692 57.308 128 128 128s128-57.308 128-128c0-38.526-17.021-73.078-43.953-96.543l55.378-55.378c20.004-20.004 31.242-47.135 31.242-75.425v-28.654c0-47.128-38.205-85.333-85.333-85.333h-170.667c-47.128 0-85.333 38.205-85.333 85.333v28.654c0 28.29 11.238 55.421 31.242 75.425l55.378 55.378zM512 277.333c47.128 0 85.333 38.205 85.333 85.333s-38.205 85.333-85.333 85.333c-47.128 0-85.333-38.205-85.333-85.333s38.205-85.333 85.333-85.333zM832 277.333c35.346 0 64 28.654 64 64s-28.654 64-64 64c-35.346 0-64-28.654-64-64s28.654-64 64-64zM192 277.333c35.346 0 64 28.654 64 64s-28.654 64-64 64c-35.346 0-64-28.654-64-64s28.654-64 64-64zM527.085 539.582c-8.331-8.331-21.839-8.331-30.17 0l-36.418 36.418h-55.163c-58.91 0-106.667 47.756-106.667 106.667v85.333c0 58.91 47.756 106.667 106.667 106.667h213.333c58.91 0 106.667-47.756 106.667-106.667v-85.333c0-58.91-47.756-106.667-106.667-106.667h-55.163l-36.418-36.418zM512 584.837l27.582 27.582c4.001 4.001 9.427 6.248 15.085 6.248h64c35.346 0 64 28.654 64 64v85.333c0 35.346-28.654 64-64 64h-213.333c-35.346 0-64-28.654-64-64v-85.333c0-35.346 28.654-64 64-64h64c5.658 0 11.084-2.248 15.085-6.248l27.582-27.582z" />
<glyph unicode="&#xe92c;" glyph-name="star" d="M561.448 906.899l115.494-234.021c8.031-16.276 23.56-27.554 41.524-30.16l258.264-37.53c45.241-6.579 63.29-62.158 30.566-94.048l-186.879-182.158c-12.987-12.666-18.925-30.929-15.849-48.808l44.108-257.218c7.732-45.048-39.559-79.395-80.015-58.142l-230.987 121.432c-16.063 8.437-35.265 8.437-51.328 0l-230.987-121.432c-40.456-21.275-87.747 13.094-80.015 58.142l44.108 257.218c3.076 17.878-2.862 36.141-15.849 48.808l-186.879 182.158c-32.724 31.912-14.674 87.491 30.566 94.048l258.264 37.53c17.964 2.606 33.493 13.884 41.524 30.16l115.494 234.021c20.207 40.99 78.648 40.99 98.876 0z" />
<glyph unicode="&#xe92d;" glyph-name="airplane" d="M977.621 913.924c-97.762 87.527-204.925 30.499-235.006-8.774l-71.86-84.811-585.53 65.384c-5.222 1.044-14.414-0.418-17.338-4.387l-60.997-60.997c-9.609-8.774-9.818-27.783 4.387-34.885l426.561-221.845-134.945-158.759-230.828 32.587c-6.476 0-12.951-2.089-17.338-6.476l-39.272-39.063c-11.071-11.698-7.938-27.992 4.387-34.885l185.080-91.287c-4.387-32.587 6.476-67.473 32.587-93.584 24.023-26.112 58.699-36.974 93.584-32.587l91.496-184.871c7.729-18.383 26.112-13.16 34.885-4.387l39.272 39.063c4.387 4.387 6.476 10.862 6.476 17.338l-32.587 230.619 158.759 134.737 219.965-424.264c8.356-14.205 23.187-15.458 34.885-4.387l60.997 60.997c4.387 4.387 6.476 10.862 6.476 17.338l-65.384 585.321 82.513 73.948c39.063 26.947 96.927 142.257 8.774 232.917zM940.438 718.191l-91.496-82.722c-4.387-6.685-6.476-13.16-6.476-19.636l65.384-585.321-32.587-32.587-219.756 419.877c-8.356 13.369-23.814 12.951-35.094 4.596l-189.467-158.759c-4.387-4.387-6.476-13.16-6.476-19.636l32.587-230.619-10.862-10.862-84.811 171.92c-4.387 8.774-15.249 12.951-26.112 10.862-23.814-6.685-52.223 0-69.562 17.338-19.427 19.427-26.112 45.539-17.338 69.562 4.387 10.862-2.089 21.725-10.862 26.112l-171.92 84.811 10.862 10.862 230.619-32.587c6.476-2.298 15.249 0 19.636 6.476l158.968 189.258c4.387 4.387 8.147 23.187-6.476 32.587l-420.086 219.756 30.499 41.361 585.112-65.175c8.774-2.298 15.249 2.089 19.636 6.476l82.722 91.287c17.547 23.814 97.762 71.442 169.831 4.387 73.113-67.891 14.205-158.759-6.476-169.622z" />
<glyph unicode="&#xe92e;" glyph-name="support" d="M416 106.624c0 0.036 0 0.078 0 0.121 0 64.778 52.513 117.291 117.291 117.291 43.104 0 80.778-23.252 101.162-57.896l0.299-0.55c89.173 39.339 122.581 101.077 122.581 218.411v128c0 170.325-96.043 288-245.333 288s-245.333-117.717-245.333-288v-149.333c-0.024-17.663-14.337-31.976-31.998-32h-42.669c-64.757 0.073-117.236 52.537-117.333 117.281v42.676c0.073 64.781 52.556 117.279 117.324 117.376h20.404c32.299 152.363 142.848 256 299.605 256s267.264-103.637 299.563-256h20.395c64.762-0.097 117.236-52.571 117.333-117.324v-42.676c-0.073-64.772-52.561-117.261-117.326-117.333h-13.191c-3.541-105.407-71.917-193.964-166.359-227.302l-1.747-0.538c-1.068-63.988-53.191-115.45-117.333-115.45-64.81 0-117.349 52.539-117.349 117.349 0 0.668 0.006 1.334 0.017 1.999l-0.001-0.1zM480 106.624c0-29.455 23.878-53.333 53.333-53.333s53.333 23.878 53.333 53.333c0 29.455-23.878 53.333-53.333 53.333v0c-29.445-0.024-53.309-23.888-53.333-53.331v-0.002zM821.333 394.624h10.624c29.464 0 53.352 23.873 53.376 53.331v42.669c0 29.464-23.873 53.352-53.331 53.376h-10.669zM138.667 490.624v-42.667c0.049-29.427 23.903-53.266 53.331-53.291h10.669v149.333h-10.667c-29.46-0.024-53.333-23.912-53.333-53.376v0z" />
<glyph unicode="&#xe92f;" glyph-name="tag" d="M929.504 474.66l-170.668 256c-8.71 12.961-23.316 21.375-39.887 21.375-0.018 0-0.035 0-0.053 0h-622.872c-8.836-0.001-15.999-7.164-15.999-16 0-3.308 1.004-6.381 2.723-8.932l-0.036 0.057 180.168-270.285c1.688-2.492 2.694-5.565 2.694-8.874s-1.007-6.384-2.732-8.933l0.036 0.056-180.166-270.215c-1.684-2.494-2.688-5.568-2.688-8.876 0-8.836 7.163-15.999 15.999-15.999 0.001 0 0.001 0 0.002 0h622.875c0.016 0 0.035 0 0.055 0 16.569 0 31.173 8.413 39.774 21.2l0.109 0.171 170.668 256c5.065 7.478 8.086 16.7 8.086 26.627s-3.021 19.149-8.194 26.796l0.108-0.169zM902.877 439.156l-170.666-256c-2.902-4.318-7.768-7.121-13.289-7.121-0.008 0-0.016 0-0.024 0h-592.976l163.58 245.34c5.066 7.478 8.088 16.699 8.088 26.626 0 9.926-3.021 19.147-8.193 26.792l0.108-0.169-163.586 245.41h592.98c0.005 0 0.010 0 0.016 0 5.524 0 10.393-2.805 13.261-7.068l0.036-0.057 170.666-256c1.688-2.493 2.695-5.567 2.695-8.877s-1.007-6.384-2.731-8.933l0.036 0.056z" />
<glyph unicode="&#xe930;" glyph-name="up-arrow" d="M1005.379 310.695l-465.464 349.089c-16.551 12.412-39.306 12.412-55.854 0l-465.439-349.089c-20.564-15.425-24.734-44.6-9.309-65.163 9.145-12.195 23.121-18.621 37.273-18.621 9.716 0 19.518 3.035 27.89 9.312l437.515 328.143 437.534-328.143c20.57-15.428 49.741-11.255 65.163 9.309 15.425 20.564 11.255 49.738-9.309 65.163z" />
<glyph unicode="&#xe931;" glyph-name="user" d="M874.039 810.039c-96.703 96.703-225.281 149.961-362.039 149.961-136.766 0-265.336-53.258-362.039-149.961s-149.961-225.273-149.961-362.039c0-136.758 53.258-265.336 149.961-362.039s225.273-149.961 362.039-149.961c136.758 0 265.336 53.258 362.039 149.961s149.961 225.281 149.961 362.039c0 136.766-53.258 265.336-149.961 362.039zM256.68 75.227c21.414 123.297 128.258 214.242 255.32 214.242 127.070 0 233.906-90.945 255.32-214.242-72.695-49.945-160.648-79.227-255.32-79.227s-182.625 29.281-255.32 79.227zM349.203 512.266c0 89.773 73.031 162.797 162.797 162.797s162.797-73.031 162.797-162.797c0-89.766-73.031-162.797-162.797-162.797s-162.797 73.031-162.797 162.797zM819.289 116.844c-16.148 57.398-48.219 109.477-93.172 150.156-27.578 24.961-58.969 44.656-92.719 58.539 61 39.789 101.406 108.625 101.406 186.727 0 122.852-99.953 222.797-222.805 222.797s-222.797-99.945-222.797-222.797c0-78.102 40.406-146.937 101.398-186.727-33.742-13.883-65.141-33.57-92.719-58.531-44.945-40.68-77.023-92.758-93.172-150.156-88.945 82.602-144.711 200.477-144.711 331.148 0 249.234 202.766 452 452 452s452-202.766 452-452c0-130.68-55.766-248.555-144.711-331.156z" />
<glyph unicode="&#xe932;" glyph-name="users-1" d="M335.732 477.918l-173.023-89.064c-21.313-10.971-34.709-32.932-34.709-56.904v-33.284c0-35.347 28.654-64 64.003-64 11.782 0 21.333-9.551 21.333-21.333s-9.551-21.333-21.333-21.333c-58.913 0-106.67 47.756-106.67 106.667v33.284c0 39.952 22.326 76.554 57.848 94.839l143.264 73.745c-45.725 39.869-73.112 97.98-73.112 160.798 0 117.821 95.513 213.333 213.333 213.333 71.535 0 137.097-35.496 176.553-93.549 6.623-9.744 4.092-23.013-5.652-29.636s-23.013-4.092-29.636 5.652c-31.594 46.486-84.012 74.866-141.265 74.866-94.257 0-170.667-76.41-170.667-170.667 0-60.233 31.437-115.015 81.931-145.817 10.058-6.136 13.238-19.264 7.103-29.322-2.297-3.765-5.573-6.567-9.302-8.276v0zM510.347 295.815l-174.164-79.165c-22.848-10.385-37.517-33.166-37.517-58.263v-30.386c0-35.346 28.654-64 64-64h469.333c35.346 0 64 28.654 64 64v30.386c0 25.097-14.669 47.878-37.517 58.263l-174.164 79.165c-26.565-11.877-56.004-18.482-86.986-18.482s-60.42 6.604-86.986 18.482v0zM466.012 322.53c-49.923 39.047-82.012 99.844-82.012 168.136 0 117.821 95.513 213.333 213.333 213.333s213.333-95.513 213.333-213.333c0-68.292-32.089-129.090-82.012-168.136l147.484-67.038c38.079-17.309 62.528-55.277 62.528-97.106v-30.386c0-58.91-47.756-106.667-106.667-106.667h-469.333c-58.91 0-106.667 47.756-106.667 106.667v30.386c0 41.829 24.448 79.797 62.528 97.106l147.484 67.038zM597.333 320c94.257 0 170.667 76.41 170.667 170.667s-76.41 170.667-170.667 170.667c-94.257 0-170.667-76.41-170.667-170.667s76.41-170.667 170.667-170.667z" />
<glyph unicode="&#xe933;" glyph-name="wedding" d="M816.819 326.259c0.934 0.862 1.858 1.739 2.771 2.637 22.131 21.764 34.319 50.844 34.319 81.882v58.556c0 58.816-47.851 106.667-106.667 106.667h-60.612c-34.409 0-62.4-27.994-62.4-62.4v-101.284c0-29.649 11.168-56.887 29.47-77.547-14.622-4.54-27.906-12.977-38.315-24.619l-78.259-76.139c-0.407-0.399-0.802-0.813-1.18-1.244-4.875-5.574-11.919-8.77-19.326-8.77s-14.449 3.196-19.326 8.77c-0.578 0.661-1.197 1.284-1.852 1.869l-84.32 75.253c-11.053 12.066-26.276 19.413-42.517 20.604 10.53 21.436 16.444 45.525 16.446 70.976l0.004 49.542c0.002 29.933-11.652 58.074-32.817 79.241s-49.303 32.823-79.238 32.823h-2.347c-63.575 0-115.296-51.516-115.296-114.839 0-52.907-23.695-102.208-65.011-135.26l-17.847-14.278c-11.104-8.885-15.238-23.296-10.532-36.717 4.708-13.419 16.939-22.091 31.159-22.091h44.117c-3.33-7.475-6.229-15.279-8.691-23.383l-57.363-188.86c-7.221-23.772-3.051-50.219 10.889-69.018 10.669-14.381 26.153-22.63 42.492-22.63h267.887c16.335 0 31.821 8.25 42.485 22.633 13.937 18.799 18.11 45.244 10.889 69.018l-51.802 170.549c-3.424 11.275-15.341 17.634-26.613 14.212-11.273-3.424-17.638-15.339-14.212-26.613l51.802-170.549c3.774-12.425 0.54-24.625-4.339-31.206-1.487-2.007-4.535-5.378-8.211-5.378h-267.885c-3.676 0-6.722 3.369-8.211 5.378-4.879 6.579-8.113 18.782-4.337 31.206l57.363 188.86c3.974 13.086 9.357 25.079 16.045 35.782h38.031c44.917 0 85.611 18.419 114.927 48.107h25.54c6.153 0 12.004-2.656 16.055-7.285 0.578-0.661 1.197-1.284 1.85-1.869l84.311-75.245c12.934-14.17 31.245-22.268 50.477-22.268 19.398 0 37.865 8.241 50.814 22.641l78.27 76.151c0.407 0.399 0.802 0.813 1.178 1.242 8.105 9.261 19.808 14.573 32.111 14.573h60.083c0.004 0 0.021 0 0.032 0h33.502c12.412 0 23.774-5.124 31.987-14.43s11.889-21.212 10.33-33.709l-12.614-108.399-59.287-29.645-55.846 27.923-8.043 67.511c-1.393 11.699-12.013 20.058-23.706 18.66-11.699-1.393-20.053-12.006-18.66-23.706l27.010-226.771c2.665-21.306 20.866-37.374 42.338-37.374h77.491c21.474 0 39.676 16.068 42.355 37.555l31.319 269.133c3.036 24.275-4.51 48.717-20.702 67.057-5.771 6.541-12.448 12.085-19.763 16.514zM342.387 401.474c-0.006-65.57-53.359-118.914-118.927-118.914h-3.91c29.449 23.52 52.755 55.661 66.059 93.591 3.9 11.119-1.952 23.292-13.071 27.194-11.106 3.893-23.29-1.952-27.191-13.069-19.859-56.619-67.501-96.909-122.586-105.845 47.934 41.088 75.268 100.365 75.268 163.81 0 39.795 32.58 72.173 72.629 72.173h2.347c18.534 0 35.959-7.219 49.067-20.326s20.322-30.534 20.32-49.067l-0.004-49.547zM811.245 410.778v0c-0.002-19.507-7.663-37.781-21.572-51.46-13.907-13.677-32.356-20.992-51.846-20.702-39.11 0.653-70.929 33.715-70.929 73.7v5.939c23.889-14.5 52.523-22.4 81.728-22.4 11.78 0 21.333 9.551 21.333 21.333s-9.553 21.333-21.333 21.333c-23.996 0-47.279 7.149-65.557 20.128-10.125 7.189-16.169 19.157-16.169 32.017v22.933c0 10.882 8.851 19.733 19.733 19.733h60.612c35.29 0 64-28.71 64-64v-58.556zM783.612-21.333l-77.476-0.124-12.913 108.412 40.265-20.132c6.003-3.002 13.075-3.002 19.078 0l43.855 21.926-12.809-110.082zM738.46 960c-50.138 0-99.46-13.229-142.637-38.255-32.478-18.825-61.011-43.983-83.823-73.728-22.812 29.745-51.347 54.906-83.823 73.728-43.179 25.026-92.501 38.255-142.639 38.255-157.446 0-285.538-128.478-285.538-286.4 0-64.941 23.755-127.375 66.886-175.797 4.215-4.734 10.063-7.145 15.938-7.145 5.047 0 10.114 1.781 14.18 5.404 8.798 7.838 9.577 21.323 1.739 30.121-36.162 40.599-56.077 92.954-56.077 147.418 0 134.396 108.951 243.733 242.874 243.733 85.931 0 163.75-44.169 208.171-118.15 3.855-6.423 10.799-10.353 18.289-10.353s14.432 3.93 18.289 10.353c44.418 73.982 122.242 118.15 208.173 118.15 133.92 0 242.871-109.338 242.871-243.733 0-54.462-19.915-106.814-56.073-147.411-7.836-8.798-7.057-22.283 1.741-30.118 8.8-7.838 22.285-7.059 30.121 1.741 43.127 48.42 66.878 110.852 66.878 175.789 0 157.922-128.092 286.4-285.54 286.4z" />
<glyph unicode="&#xe934;" glyph-name="up-arrow1" d="M527.165 462.978c-8.322 8.322-21.765 8.322-30.087 0l-490.78-490.78c-8.108-8.536-7.896-21.979 0.426-30.087 8.322-7.896 21.339-7.896 29.661 0l475.631 475.631 475.631-475.633c8.534-8.322 21.977-8.108 30.299 0.428 7.896 8.322 7.896 21.339 0 29.661l-490.78 490.78zM6.51 432.891c8.536-8.108 21.551-8.108 29.873 0l475.631 475.631 475.631-475.631c8.536-8.108 21.979-7.896 30.087 0.426 7.896 8.322 7.896 21.339 0 29.661l-490.78 490.78c-8.322 8.322-21.765 8.322-30.087 0l-490.78-490.78c-8.108-8.536-7.896-21.979 0.426-30.087z" />
<glyph unicode="&#xe935;" glyph-name="left-arrow" d="M497.022 463.165c-8.322-8.322-8.322-21.765 0-30.087l490.78-490.78c8.536-8.108 21.979-7.896 30.087 0.426 7.896 8.322 7.896 21.339 0 29.661l-475.631 475.631 475.633 475.631c8.322 8.534 8.108 21.977-0.428 30.299-8.322 7.896-21.339 7.896-29.661 0l-490.78-490.78zM527.109-57.49c8.108 8.536 8.108 21.551 0 29.873l-475.631 475.631 475.631 475.631c8.108 8.536 7.896 21.979-0.426 30.087-8.322 7.896-21.339 7.896-29.661 0l-490.78-490.78c-8.322-8.322-8.322-21.765 0-30.087l490.78-490.78c8.536-8.108 21.979-7.896 30.087 0.426z" />
<glyph unicode="&#xe936;" glyph-name="right-arrow1" d="M526.978 432.835c8.322 8.322 8.322 21.765 0 30.087l-490.78 490.78c-8.536 8.108-21.979 7.896-30.087-0.426-7.896-8.322-7.896-21.339 0-29.661l475.631-475.631-475.633-475.631c-8.322-8.534-8.108-21.977 0.428-30.299 8.322-7.896 21.339-7.896 29.661 0l490.78 490.78zM496.891 953.49c-8.108-8.536-8.108-21.551 0-29.873l475.631-475.631-475.631-475.631c-8.108-8.536-7.896-21.979 0.426-30.087 8.322-7.896 21.339-7.896 29.661 0l490.78 490.78c8.322 8.322 8.322 21.765 0 30.087l-490.78 490.78c-8.536 8.108-21.979 7.896-30.087-0.426z" />
<glyph unicode="&#xe937;" glyph-name="left-arrow1" d="M0 439.617c0-28.475 10.889-55.218 31.026-75.356l295.295-295.432c22.256-22.256 58.339-22.256 80.55 0 22.279 22.256 22.233 58.499 0 80.777l-240.874 240.783h801.418c31.482 0.023 56.585 25.832 56.585 57.337 0 0.068 0 0.569 0 0.638 0 31.482-25.103 57.474-56.585 57.474h-801.441l240.829 240.646c22.279 22.279 22.279 58.408 0 80.663-22.256 22.301-58.339 22.279-80.595-0.023l-295.181-295.455c-20.16-20.092-31.026-46.904-31.026-75.379 0-2.802 0-13.873 0-16.675z" />
<glyph unicode="&#xe938;" glyph-name="up-arrow2" d="M503.617 960c-28.475 0-55.218-10.889-75.356-31.026l-295.432-295.295c-22.256-22.256-22.256-58.339 0-80.55 22.256-22.279 58.499-22.233 80.777 0l240.783 240.874v-801.418c0.023-31.482 25.832-56.585 57.337-56.585 0.068 0 0.569 0 0.638 0 31.482 0 57.474 25.103 57.474 56.585v801.441l240.646-240.829c22.279-22.279 58.408-22.279 80.663 0 22.301 22.256 22.279 58.339-0.023 80.595l-295.455 295.181c-20.092 20.16-46.904 31.026-75.379 31.026-2.802 0-13.873 0-16.675 0z" />
<glyph unicode="&#xe939;" glyph-name="down-arrow1" d="M520.383-64c28.475 0 55.218 10.889 75.356 31.026l295.432 295.295c22.256 22.256 22.256 58.339 0 80.55-22.256 22.279-58.499 22.233-80.777 0l-240.783-240.874v801.418c-0.023 31.482-25.832 56.585-57.337 56.585-0.068 0-0.569 0-0.638 0-31.482 0-57.474-25.103-57.474-56.585v-801.441l-240.646 240.829c-22.279 22.279-58.408 22.279-80.663 0-22.301-22.256-22.279-58.339 0.023-80.595l295.455-295.181c20.092-20.16 46.904-31.026 75.379-31.026 2.802 0 13.873 0 16.675 0z" />
<glyph unicode="&#xe93a;" glyph-name="down-arrow2" d="M18.621 585.305l465.464-349.089c16.551-12.412 39.306-12.412 55.854 0l465.439 349.089c20.564 15.425 24.734 44.6 9.309 65.163-9.145 12.195-23.121 18.621-37.273 18.621-9.716 0-19.518-3.035-27.89-9.312l-437.515-328.143-437.534 328.143c-20.57 15.428-49.741 11.255-65.163-9.309-15.425-20.564-11.255-49.738 9.309-65.163z" />
<glyph unicode="&#xe93b;" glyph-name="left-arrow2" d="M649.305 941.379l-349.089-465.464c-12.412-16.551-12.412-39.306 0-55.854l349.089-465.439c15.425-20.564 44.6-24.734 65.163-9.309 12.195 9.145 18.621 23.121 18.621 37.273 0 9.716-3.035 19.518-9.312 27.89l-328.143 437.515 328.143 437.534c15.428 20.57 11.255 49.741-9.309 65.163-20.564 15.425-49.738 11.255-65.163-9.309z" />
<glyph unicode="&#xe93c;" glyph-name="right-arrow2" d="M374.695-45.379l349.089 465.464c12.412 16.551 12.412 39.306 0 55.854l-349.089 465.439c-15.425 20.564-44.6 24.734-65.163 9.309-12.195-9.145-18.621-23.121-18.621-37.273 0-9.716 3.035-19.518 9.312-27.89l328.143-437.515-328.143-437.534c-15.428-20.57-11.255-49.741 9.309-65.163 20.564-15.425 49.738-11.255 65.163 9.309z" />
</font>
</defs>
</svg>
